<?xml version="1.0" standalone="no"?>
<!DOCTYPE svg PUBLIC "-//W3C//DTD SVG 1.1//EN" "http://www.w3.org/Graphics/SVG/1.1/DTD/svg11.dtd" >
<svg xmlns="http://www.w3.org/2000/svg" xmlns:xlink="http://www.w3.org/1999/xlink" version="1.1">
<metadata>
Created by FontForge 20170731 at Fri May 23 23:31:43 2014
 By Aleksey,,,
</metadata>
<defs>
<font id="themify" horiz-adv-x="512" >
  <font-face 
    font-family="themify"
    font-weight="400"
    font-stretch="normal"
    units-per-em="512"
    panose-1="0 0 0 0 0 0 0 0 0 0"
    ascent="480"
    descent="-32"
    bbox="-9 -36 521 486"
    underline-thickness="50"
    underline-position="-200"
    unicode-range="U+0001-FFFD"
  />
<missing-glyph horiz-adv-x="0" 
 />
    <glyph glyph-name=".notdef" unicode="&#xfffd;" horiz-adv-x="0" 
 />
    <glyph glyph-name=".null" horiz-adv-x="0" 
 />
    <glyph glyph-name="nonmarkingreturn" horiz-adv-x="170" 
 />
    <glyph glyph-name="u0" horiz-adv-x="0" 
 />
    <glyph glyph-name="u0" horiz-adv-x="0" 
 />
    <glyph glyph-name="u1" horiz-adv-x="0" 
 />
    <glyph glyph-name="u20" unicode=" " horiz-adv-x="256" 
 />
    <glyph glyph-name="uE600" unicode="&#xe600;" 
d="M512 329v31h-99l69 68l-22 22l-68 -69v99h-31v-99l-70 70l-21 -21l70 -70h-99v-31h99l-321 -321l22 -21l320 321v-99h31v99l70 -70l21 21l-70 70h99z" />
    <glyph glyph-name="uE601" unicode="&#xe601;" 
d="M108 301h54l170 173v-495l-171 171h-53q-19 0 -33 14t-14 33v65q0 18 12.5 28.5t34.5 10.5zM302 400l-127 -129h-67q-17 0 -17 -9v-65q0 -7 5 -12t12 -5h65l129 -128v348zM362 149q25 0 42.5 18t17.5 43t-17.5 42.5t-42.5 17.5v-30q12 0 21 -9t9 -21q0 -13 -9 -22t-21 -9
v-30zM483 209q0 50 -35.5 85.5t-85.5 35.5v-30q38 0 64.5 -27t26.5 -64t-27 -63.5t-64 -26.5v-30q50 0 85.5 35t35.5 85z" />
    <glyph glyph-name="uE602" unicode="&#xe602;" 
d="M512 -17v-15h-512v15q1 61 57 108.5t142 61.5v38q-22 20 -35 60q-14 8 -23 27q-17 36 6 52q-1 6 -1 19v11q-1 23 0.5 36.5t13.5 28.5t36 17q2 2 3 4q16 32 59 34h8q89 0 109 -59q4 -11 -3 -29q-8 -20 -6 -41v-22q17 -15 6 -49q-8 -23 -24 -31q-13 -36 -32 -55v-42
q84 -14 139.5 -61t56.5 -108zM32 -2h448q-8 47 -58.5 82t-122.5 44l-14 2v82l6 5q17 12 31 53l3 10h11v1q1 1 2 2.5t2.5 4.5t2.5 6q3 9 3 14l-14 -1l3 24q2 15 1 20q-3 31 8 56q2 6 2 8q-13 39 -80 39h-7q-25 -1 -33 -18q-11 -19 -27 -20t-20 -10.5t-3 -40.5v-12q0 -9 2 -29
l3 -22l-16 4q0 -1 1 -3t1.5 -4.5t1.5 -4.5q4 -13 10 -13l9 -2l2 -8q15 -44 33 -56l6 -4v-81l-13 -1q-73 -9 -124 -44.5t-60 -82.5z" />
    <glyph glyph-name="uE603" unicode="&#xe603;" 
d="M286 150q0 12 -8.5 21t-21.5 9t-21.5 -9t-8.5 -21q0 -18 15 -26v-65h30v65q15 8 15 26zM452 225q0 19 -13.5 32t-31.5 13v60q0 62 -44.5 106.5t-106.5 44.5t-106.5 -44.5t-44.5 -106.5h31q0 50 35 85.5t85 35.5t85 -35.5t35 -85.5v-60h-270q-19 0 -32.5 -13t-13.5 -32
v-213q0 -19 13.5 -32t32.5 -13h300q19 0 32.5 13t13.5 32v213zM421 225v-213q0 -15 -15 -15h-300q-15 0 -15 15v213q0 15 15 15h300q15 0 15 -15z" />
    <glyph glyph-name="uE604" unicode="&#xe604;" 
d="M64 325q-24 -36 -15 -79t45 -67q28 -18 59 -18q47 0 81 40l-23 20q-21 -25 -48 -29.5t-52 12.5q-26 17 -32 48t11 58l42 78q17 26 48 32t57 -11l16 25q-36 24 -79 15t-68 -46zM122 238q31 31 74.5 31t74.5 -31t31 -74.5t-31 -74.5l-91 -91q-31 -31 -75 -31t-74 31
q-31 31 -31 74.5t31 74.5l31 32l22 -21l-32 -32q-22 -22 -22 -53t22 -54q22 -22 53 -22t53 22l91 91q23 22 23 53t-23 54q-22 22 -53 22t-53 -22l-4 -4l-21 21zM330 269v30h123v-30h-123zM316 229l15 26l59 -34l-15 -26zM324 445l26 -15l-48 -82l-26 15zM478 398l-150 -87
l-16 26l151 87z" />
    <glyph glyph-name="uE605" unicode="&#xe605;" 
d="M329 419h108v-30h-332v30h108q5 20 21 33t37 13t37 -13t21 -33zM271 435q-17 0 -26 -16h52q-9 16 -26 16zM392 360v-317q0 -6 -4.5 -10.5t-11.5 -4.5h-210q-15 0 -15 15v317h-31v-317q0 -19 13.5 -32t32.5 -13h210q19 0 32.5 13t13.5 32v317h-30zM241 329h-30v-241h30
v241zM331 329h-30v-241h30v241z" />
    <glyph glyph-name="uE606" unicode="&#xe606;" 
d="M346 175q-20 0 -42 6q-30 -32 -78 -32q-43 0 -73 27q-3 0 -9 -0.5t-8 -0.5q-56 0 -96 36.5t-40 88.5t40 88.5t96 36.5q38 0 69 -18q23 34 60.5 53.5t80.5 19.5q69 0 117.5 -44.5t48.5 -107.5t-48.5 -108t-117.5 -45zM293 215l10 -3q28 -7 43 -7q56 0 96 36t40 87
q0 50 -40 86t-96 36q-39 0 -72 -19.5t-50 -51.5l-8 -16l-15 10q-28 22 -65 22q-44 0 -75 -28t-31 -67t31 -67t75 -28q7 0 19 2l8 2l6 -6q22 -24 57 -24q39 0 61 28zM346 164q25 0 43 -17.5t18 -42.5q0 -26 -17.5 -43.5t-43.5 -17.5q-25 0 -42.5 18t-17.5 43t17.5 42.5
t42.5 17.5zM346 73q13 0 21.5 9t8.5 22q0 12 -8.5 21t-21.5 9q-12 0 -21 -9t-9 -21q0 -13 9 -22t21 -9zM459 58q16 0 27 -11t11 -26q0 -16 -11 -27t-27 -11q-15 0 -26 11t-11 27q0 15 11 26t26 11zM452 21q0 -7 7.5 -7t7.5 7t-8 7q-7 0 -7 -7z" />
    <glyph glyph-name="uE607" unicode="&#xe607;" 
d="M513 239v-30h-62q-5 -72 -57 -123.5t-124 -56.5v-61h-30v61q-72 6 -123 57t-56 123h-62v30h62q5 72 56 123t123 57v62h30v-62q73 -5 124.5 -56.5t56.5 -123.5h62zM270 59q60 5 103 47.5t48 102.5h-59v30h59q-5 60 -48 102.5t-103 47.5v-58h-30v58q-59 -6 -101.5 -48.5
t-47.5 -101.5h59v-30h-59q5 -59 47.5 -101.5t101.5 -48.5v60h30v-60z" />
    <glyph glyph-name="uE608" unicode="&#xe608;" 
d="M270 450l122 -87v-366l-122 84l-120 -84v366zM362 55v292l-92 66l-90 -65v-293l90 63zM218 299q0 22 15.5 37.5t37.5 15.5t37.5 -15.5t15.5 -37.5t-15.5 -37t-37.5 -15t-37.5 15t-15.5 37zM271 322q-9 0 -15.5 -6.5t-6.5 -16.5q0 -9 6.5 -15.5t15.5 -6.5q10 0 16.5 6.5
t6.5 15.5q0 10 -6.5 16.5t-16.5 6.5z" />
    <glyph glyph-name="uE609" unicode="&#xe609;" 
d="M279 43q0 10 -7 16.5t-16 6.5t-16 -6.5t-7 -16.5q0 -9 7 -15.5t16 -6.5t16 6.5t7 15.5zM482 435q0 19 -12.5 32t-29.5 13h-368q-17 0 -29.5 -13t-12.5 -32v-422q0 -19 12.5 -32t29.5 -13h368q17 0 29.5 13t12.5 32v422zM452 435v-422q0 -6 -3.5 -10.5t-8.5 -4.5h-368
q-5 0 -8.5 4.5t-3.5 10.5v422q0 6 3.5 10.5t8.5 4.5h368q5 0 8.5 -4.5t3.5 -10.5zM90 420v-332h332v332h-332zM120 119v271h272v-271h-272z" />
    <glyph glyph-name="uE60A" unicode="&#xe60a;" 
d="M501 269l-151 -111l58 -178l-152 110l-152 -110l58 178l-151 111h187l58 178l58 -178h187zM350 59l-36 111l95 69h-117l-36 111l-36 -111h-117l95 -69l-36 -111l94 69z" />
    <glyph glyph-name="uE60B" unicode="&#xe60b;" 
d="M196 390q68 0 104 -61h31v-316q0 -19 -13 -32t-32 -13h-181q-18 0 -31.5 13t-13.5 32v316h32q16 28 44 44.5t60 16.5zM196 360q-41 0 -67 -31h134q-28 31 -67 31zM301 13v286h-211v-286q0 -6 4.5 -10.5t10.5 -4.5h181q6 0 10.5 4.5t4.5 10.5zM241 480v-90h-90v90h90z
M211 420v30h-30v-30h30zM360 434l94 16l-5 30l-180 -30l2 -16l-2 -15l180 -30l5 30z" />
    <glyph glyph-name="uE60C" unicode="&#xe60c;" 
d="M346 360q0 -34 -21.5 -59t-53.5 -30v-243h60v-30h-150v30h60v243q-32 5 -53.5 30t-21.5 59q0 37 26.5 63.5t63.5 26.5t63.5 -26.5t26.5 -63.5zM196 360q0 -25 17.5 -43t42.5 -18t42.5 18t17.5 43t-17.5 42.5t-42.5 17.5t-42.5 -17.5t-17.5 -42.5zM136 414l-24 19
q-24 -30 -24 -66q0 -37 24 -67l24 19q-18 21 -18 48q0 26 18 47zM60 367q0 49 34 88l-23 20q-41 -49 -41 -108q0 -60 41 -109l23 20q-34 39 -34 89zM424 367q0 36 -24 66l-24 -19q18 -21 18 -47q0 -27 -18 -48l24 -19q24 30 24 67zM482 367q0 59 -41 108l-23 -20
q34 -39 34 -88q0 -50 -34 -89l23 -20q41 49 41 109z" />
    <glyph glyph-name="uE60D" unicode="&#xe60d;" 
d="M83 104q22 0 37.5 -15.5t15.5 -37.5t-15.5 -37.5t-37.5 -15.5t-37.5 15.5t-15.5 37.5t15.5 37.5t37.5 15.5zM83 28q9 0 15.5 6.5t6.5 16.5q0 9 -6.5 15.5t-15.5 6.5q-10 0 -16.5 -6.5t-6.5 -15.5q0 -10 6.5 -16.5t16.5 -6.5zM339 104q22 0 37.5 -15.5t15.5 -37.5
t-15.5 -37.5t-37.5 -15.5t-37.5 15.5t-15.5 37.5t15.5 37.5t37.5 15.5zM339 28q9 0 15.5 6.5t6.5 16.5q0 9 -6.5 15.5t-15.5 6.5q-10 0 -16.5 -6.5t-6.5 -15.5q0 -10 6.5 -16.5t16.5 -6.5zM403 420h109v-30h-83l-8 -48l-31 -224h-359l-33 242h396zM389 329h-357l5 -30h348z
M58 148h306l17 121h-340z" />
    <glyph glyph-name="uE60E" unicode="&#xe60e;" 
d="M83 104q22 0 37.5 -15.5t15.5 -37.5t-15.5 -37.5t-37.5 -15.5t-37.5 15.5t-15.5 37.5t15.5 37.5t37.5 15.5zM83 28q9 0 15.5 6.5t6.5 16.5q0 9 -6.5 15.5t-15.5 6.5q-10 0 -16.5 -6.5t-6.5 -15.5q0 -10 6.5 -16.5t16.5 -6.5zM339 104q22 0 37.5 -15.5t15.5 -37.5
t-15.5 -37.5t-37.5 -15.5t-37.5 15.5t-15.5 37.5t15.5 37.5t37.5 15.5zM339 28q9 0 15.5 6.5t6.5 16.5q0 9 -6.5 15.5t-15.5 6.5q-10 0 -16.5 -6.5t-6.5 -15.5q0 -10 6.5 -16.5t16.5 -6.5zM403 420h109v-30h-83l-7 -47l-32 -225h-359l-33 242h396zM364 148l25 181h-357
l26 -181h306zM331 179v119h-30v-89h-181v89h-30v-119h241zM120 391v29h181v-28h30v58h-241v-59h30z" />
    <glyph glyph-name="uE60F" unicode="&#xe60f;" 
d="M256 300q31 0 53 -22t22 -53t-21.5 -53t-53.5 -22t-53.5 22t-21.5 53t22 53t53 22zM256 180q19 0 32 13t13 32t-13 32t-32 13t-32 -13t-13 -32t13 -32t32 -13zM510 196l-78 -24q-5 -18 -14 -34l38 -72q-17 -21 -41 -42l-72 39q-19 -10 -34 -14l-24 -78q-18 -2 -29 -2
t-29 2l-24 78q-15 4 -34 14l-72 -39q-24 21 -41 42l38 71q-10 18 -14 35l-78 24q-2 18 -2 29t2 29l78 24q4 15 14 34l-38 72q18 23 41 41l72 -38q19 10 34 14l24 78q18 2 29 2t29 -2l24 -78q21 -7 34 -14l72 38q23 -18 41 -41l-38 -72q10 -19 14 -34l78 -24q2 -18 2 -29
t-2 -29zM408 196l74 22v7v6l-58 18l-16 4l-5 16q-5 16 -12 29l-7 14l7 14l29 54l-9 9l-68 -36l-14 7q-13 7 -29 12l-15 5l-5 15l-18 59h-6h-6l-18 -59l-5 -15l-15 -5q-16 -5 -29 -12l-14 -7l-68 36l-9 -9l36 -68l-7 -14q-7 -13 -12 -29l-5 -16l-74 -22v-6v-7l74 -22l5 -15
q5 -16 12 -29l7 -14l-36 -68l9 -9l68 36l14 -8q13 -7 29 -12l15 -4l5 -16l18 -58h6h6l18 58l5 16l15 4q26 11 29 12l14 8l68 -36l9 9l-29 53l-7 15l7 14q7 13 12 29z" />
    <glyph glyph-name="uE610" unicode="&#xe610;" 
d="M500 2l-21 -21l-156 156q-54 -48 -127 -48q-81 0 -138.5 57.5t-57.5 138.5q0 82 57 139q59 57 139 57q81 0 138.5 -57.5t57.5 -138.5q0 -73 -48 -127zM196 119q68 0 116.5 49t48.5 117t-48.5 117t-116.5 49t-117 -49q-49 -47 -49 -117q0 -68 48.5 -117t117.5 -49z" />
    <glyph glyph-name="uE611" unicode="&#xe611;" 
d="M500 1l-21 -21l-156 156q-54 -48 -127 -48q-81 0 -138.5 57.5t-57.5 138.5q0 82 57 139t139 57q81 0 138.5 -57.5t57.5 -138.5q0 -73 -48 -127zM196 119q68 0 116.5 48.5t48.5 116.5q0 69 -48.5 117.5t-116.5 48.5q-70 0 -117 -49q-49 -47 -49 -117q0 -68 48.5 -116.5
t117.5 -48.5zM211 299v61h-30v-61h-61v-30h61v-60h30v60h60v30h-60z" />
    <glyph glyph-name="uE612" unicode="&#xe612;" 
d="M500 2l-21 -21l-156 156q-54 -48 -127 -48q-81 0 -138.5 57.5t-57.5 138.5q0 82 57 139q59 57 139 57q81 0 138.5 -57.5t57.5 -138.5q0 -73 -48 -127zM196 119q68 0 116.5 49t48.5 117t-48.5 117t-116.5 49t-117 -49q-49 -47 -49 -117q0 -68 48.5 -117t117.5 -49z
M120 300v-30h151v30h-151z" />
    <glyph glyph-name="uE613" unicode="&#xe613;" 
d="M392 149q37 0 63.5 -27t26.5 -64t-26.5 -63.5t-63.5 -26.5t-64 26.5t-27 63.5q0 32 22 59l-67 71l-67 -71q22 -27 22 -59q0 -37 -27 -63.5t-64 -26.5t-63.5 26.5t-26.5 63.5t26.5 64t63.5 27q24 0 45 -13l70 74l-188 199l22 21l187 -198l187 198l22 -21l-188 -199l70 -74
q21 13 45 13zM120 -2q25 0 43 17.5t18 42.5q0 26 -17.5 43.5t-43.5 17.5q-25 0 -42.5 -18t-17.5 -43t17.5 -42.5t42.5 -17.5zM392 -2q25 0 42.5 17.5t17.5 42.5t-17.5 43t-42.5 18q-26 0 -43.5 -17.5t-17.5 -43.5q0 -25 18 -42.5t43 -17.5z" />
    <glyph glyph-name="uE614" unicode="&#xe614;" 
d="M151 480h210v-512h-210v512zM331 -2v452h-150v-30h60v-30h-60v-30h30v-31h-30v-30h60v-30h-60v-30h30v-31h-30v-29h60v-30h-60v-30h30v-31h-30v-30h60v-30h-60v-30h150z" />
    <glyph glyph-name="uE615" unicode="&#xe615;" 
d="M135 480q19 0 32 -13t13 -32v-321l-74 -149l-76 149v321q0 19 13.5 32t32.5 13h59zM76 450q-7 0 -11.5 -4.5t-4.5 -10.5v-31h90v31q0 15 -15 15h-59zM60 343h90v31h-90v-31zM119 58l31 63v192h-29v-195h-30v195h-31v-192l33 -63h26zM241 480h211v-512h-211v512zM422 -2
v452h-151v-30h60v-30h-60v-30h30v-31h-30v-30h60v-30h-60v-30h30v-31h-30v-29h60v-30h-60v-30h30v-31h-30v-30h60v-30h-60v-30h151z" />
    <glyph glyph-name="uE616" unicode="&#xe616;" 
d="M362 480l150 -150l-362 -362l-150 150zM43 118l107 -107l319 319l-107 107l-21 -21l43 -43l-22 -21l-42 42l-21 -21l21 -21l-21 -22l-22 22l-21 -22l42 -42l-21 -22l-43 43l-21 -21l21 -22l-21 -21l-21 21l-21 -21l42 -42l-21 -22l-42 43l-22 -21l22 -22l-22 -21l-21 21
l-22 -21l43 -43l-21 -21l-43 42z" />
    <glyph glyph-name="uE617" unicode="&#xe617;" 
d="M107 450h285v-465l-144 98l-141 -99v466zM361 42v378h-224v-378l111 77z" />
    <glyph glyph-name="uE618" unicode="&#xe618;" 
d="M302 177l-91 61l-91 -61v303h182v-303zM150 233l61 42l61 -42v217h-122v-217zM482 450h-151v-30h121v-392h-392v392h30v30h-60v-452h452v452z" />
    <glyph glyph-name="uE619" unicode="&#xe619;" 
d="M181 239v30h-127q16 71 72.5 116.5t129.5 45.5q69 0 124.5 -42t74.5 -109l29 8q-22 77 -85.5 125t-142.5 48q-77 0 -140 -46t-86 -119v124h-30v-181h181zM331 209h181v-181h-30v124q-23 -73 -86 -119t-140 -46q-79 0 -142.5 48t-85.5 125l29 8q19 -67 74.5 -109
t124.5 -42q73 0 129.5 45.5t72.5 116.5h-127v30z" />
    <glyph glyph-name="uE61A" unicode="&#xe61a;" 
d="M482 209v30h-211v211h-30v-211h-211v-30h211v-211h30v211h211z" />
    <glyph glyph-name="uE61B" unicode="&#xe61b;" 
d="M361 344q0 -39 -26 -69t-65 -35v-242h-30v243q-38 6 -63.5 35t-25.5 68q0 44 30.5 75t74.5 31t74.5 -31t30.5 -75zM256 269q31 0 53 22t22 53q0 32 -22 54t-53 22t-53 -22t-22 -54q0 -31 22 -53t53 -22zM301 329q0 25 -17.5 43t-42.5 18v-30q13 0 21.5 -9t8.5 -22h30z
" />
    <glyph glyph-name="uE61C" unicode="&#xe61c;" 
d="M468 394q13 -14 13 -32t-13 -32l-273 -273l-158 -53l52 159l273 273q13 13 31.5 13t31.5 -13zM93 80l19 -19l59 20l-58 58zM131 163l64 -63l165 165l-63 64zM318 350l63 -64l22 22l-63 64zM446 351q11 11 0 22l-42 42q-10 11 -21 0l-22 -22l64 -63z" />
    <glyph glyph-name="uE61D" unicode="&#xe61d;" 
d="M497 424q13 -13 13 -31q0 -19 -13 -32l-227 -227l-158 -53l52 159l227 227q13 13 32 13t32 -13zM168 156l19 -19l58 20l-58 58zM206 239l63 -63l120 120l-63 63zM347 381l64 -64l22 22l-64 63zM476 382q4 6 4 11q0 4 -4 10l-43 42q-10 11 -21 0l-22 -21l64 -64zM452 254
v-256h-422v392h196v30h-226v-452h482v286h-30z" />
    <glyph glyph-name="uE61E" unicode="&#xe61e;" 
d="M452 420h30v-30h-30v-91h-392v91h-15q-6 0 -10.5 -4.5t-4.5 -11.5v-90q0 -6 4.5 -10.5t10.5 -4.5h181q19 0 32 -13t13 -32v-45h30v-211h-90v211h30v45q0 6 -4.5 10.5t-10.5 4.5h-181q-19 0 -32 13t-13 32v90q0 19 13 32.5t32 13.5h15v60h392v-60zM271 -2v151h-30v-151h30
zM422 329v121h-332v-121h332z" />
    <glyph glyph-name="uE61F" unicode="&#xe61f;" 
d="M503 184h-108l-168 -167q-14 -14 -34 -14t-34 14l-145 146q-14 14 -14 34t14 34l67 67q-31 31 -31 75q0 43 31 76q31 31 76 31q44 0 75 -31l4 4zM80 373q0 -30 22 -54l109 109q-24 22 -54 22q-32 0 -55 -23q-22 -22 -22 -54zM206 38l110 111h-245l109 -111q7 -5 13 -5
t13 5zM346 179l36 35h49l-195 196l-201 -200q-5 -5 -5 -13q0 -6 5 -13l6 -5h305zM472 120q40 -56 40 -84q0 -22 -15.5 -37.5t-37.5 -15.5t-37 15.5t-15 37.5q0 27 41 84l12 18zM459 13q10 0 16.5 6.5t6.5 16.5q0 11 -22 48q-23 -37 -23 -48q0 -10 6.5 -16.5t15.5 -6.5z" />
    <glyph glyph-name="uE620" unicode="&#xe620;" 
d="M256 465q100 0 170.5 -70.5t70.5 -170.5t-70.5 -170.5t-170.5 -70.5t-170.5 70.5t-70.5 170.5t70.5 170.5t170.5 70.5zM256 435q-87 0 -149 -62t-62 -149q0 -78 52 -138l297 297q-60 52 -138 52zM256 13q87 0 149 62t62 149q0 78 -52 138l-297 -297q60 -52 138 -52z" />
    <glyph glyph-name="uE621" unicode="&#xe621;" 
d="M376 480q19 0 32.5 -13t13.5 -32v-422q0 -19 -13.5 -32t-32.5 -13h-240q-19 0 -32.5 13t-13.5 32v422q0 19 13.5 32t32.5 13h240zM136 450q-7 0 -11.5 -4.5t-4.5 -10.5v-45h272v45q0 6 -4.5 10.5t-11.5 4.5h-240zM392 360h-272v-241h272v241zM376 -2q7 0 11.5 4.5
t4.5 10.5v75h-272v-75q0 -6 4.5 -10.5t11.5 -4.5h240zM271 43q0 15 -15 15t-15 -15q0 -6 4.5 -10.5t10.5 -4.5t10.5 4.5t4.5 10.5z" />
    <glyph glyph-name="uE622" unicode="&#xe622;" 
d="M452 239h-392v-30h392v30z" />
    <glyph glyph-name="uE623" unicode="&#xe623;" 
d="M256 480q62 0 106.5 -44.5t44.5 -106.5q0 -64 -47 -108q-3 -3 -9 -7l-3 -3l-9 -6t-8 -5v-217l-76 57l-74 -57v217q-2 1 -8 5l-9 6l-3 3q-6 4 -9 7q-47 44 -47 108q0 62 44.5 106.5t106.5 44.5zM301 44v127q-20 -7 -45 -7t-45 7v-127l44 34zM339 242q37 35 37 87
q0 50 -35 85.5t-85 35.5t-85 -35.5t-35 -85.5q0 -52 37 -87q1 -1 3 -2.5t3 -1.5l4 -3q32 -25 73 -25t74 25l3 3q1 0 3 1.5t3 2.5zM330 374l-59 -11v57h-30v-57l-57 11l-5 -29l53 -11l-34 -58l25 -15l33 55l33 -55l26 15l-35 58l55 11z" />
    <glyph glyph-name="uE624" unicode="&#xe624;" 
d="M256 480q62 0 106.5 -44.5t44.5 -106.5q0 -64 -47 -108q-3 -3 -9 -7l-3 -3l-9 -6t-8 -5v-217l-76 57l-74 -57v217q-2 1 -8 5l-9 6l-3 3q-6 4 -9 7q-47 44 -47 108q0 62 44.5 106.5t106.5 44.5zM301 44v127q-20 -7 -45 -7t-45 7v-127l44 34zM339 242q37 35 37 87
q0 50 -35 85.5t-85 35.5t-85 -35.5t-35 -85.5q0 -52 37 -87q1 -1 3 -2.5t3 -1.5l4 -3q32 -25 73 -25t74 25l3 3q1 0 3 1.5t3 2.5zM309 329q0 22 -15.5 37.5t-37.5 15.5t-37.5 -15.5t-15.5 -37.5t15.5 -37t37.5 -15t37.5 15t15.5 37z" />
    <glyph glyph-name="uE625" unicode="&#xe625;" 
d="M321 450q18 0 29 -14t11 -36v-128h-30v128q0 20 -10 20h-20v-341l-56 -70h-4v-20l-30 -21v41h-5l-55 70v355q0 29 9 38q8 8 21 8h75q30 0 42 -30h23zM181 450v-16v-105h90v101q0 8 -4.5 14t-10.5 6h-75zM231 40l40 50v209h-90v-209l40 -50h10z" />
    <glyph glyph-name="uE626" unicode="&#xe626;" 
d="M472 309q14 -15 10 -34q-3 -18 -17 -30l-90 -91l-22 21l91 91q7 7 9 14q0 5 -3 8l-13 13l-262 -262l-89 -10l-3 3l-15 -14l-36 6l29 30l-3 3l10 89l272 272q22 20 34 20q11 0 20 -9l53 -53q13 -13 13 -34q-2 -11 -5 -17zM161 68l169 169l-64 64l-169 -169l-7 -64l7 -7z
M352 259l71 71q5 5 7 14q0 6 -4 11l-53 52q-1 0 -11 -10l-74 -74z" />
    <glyph glyph-name="uE627" unicode="&#xe627;" 
d="M456 213l21 22l-221 221l-221 -221l21 -22l185 185v-400h30v400z" />
    <glyph glyph-name="uE628" unicode="&#xe628;" 
d="M473 225l-221 221l-22 -21l185 -185h-385v-30h385l-185 -185l22 -22z" />
    <glyph glyph-name="uE629" unicode="&#xe629;" 
d="M482 210v30h-385l185 185l-22 21l-221 -221l221 -222l22 22l-185 185h385z" />
    <glyph glyph-name="uE62A" unicode="&#xe62a;" 
d="M477 213l-21 22l-185 -185v400h-30v-400l-185 185l-21 -22l221 -221z" />
    <glyph glyph-name="uE62B" unicode="&#xe62b;" 
d="M286 150q0 12 -8.5 21t-21.5 9t-21.5 -9t-8.5 -21q0 -18 15 -26v-65h30v65q15 8 15 26zM451 225q0 19 -13 32t-31 13v60q0 62 -44.5 106.5t-106.5 44.5t-106.5 -44.5t-44.5 -106.5v-60q-19 0 -32 -13t-13 -32v-213q0 -19 13 -32t32 -13h301q18 0 31.5 13t13.5 32v213z
M136 270v60q0 50 35 85.5t85 35.5t85 -35.5t35 -85.5v-60h-240zM421 225v-213q0 -6 -4.5 -10.5t-10.5 -4.5h-301q-15 0 -15 15v213q0 15 15 15v0h302q14 -2 14 -15z" />
    <glyph glyph-name="uE62C" unicode="&#xe62c;" 
d="M59 421l425 -159l-229 -37l-36 -229zM229 251l138 22l-256 96l96 -256z" />
    <glyph glyph-name="uE62D" unicode="&#xe62d;" 
d="M391 271q31 31 31 74.5t-31 74.5t-74.5 31t-74.5 -31l-90 -90q-31 -31 -31 -74.5t31 -74.5t75 -31q43 0 74 31l-21 21q-22 -22 -53 -22t-54 22q-22 22 -22 53t22 54l90 90q23 22 54 22t53 -22t22 -53.5t-22 -53.5l-29 -28l22 -21zM182 238q31 31 74.5 31t74.5 -31
t31 -74.5t-31 -74.5l-91 -91q-31 -31 -75 -31t-74 31q-31 31 -31 74.5t31 74.5l32 32l21 -21l-32 -32q-22 -22 -22 -53t22 -54q22 -22 53 -22t54 22l91 91q22 22 22 53t-22 54q-22 22 -53 22t-54 -22l-4 -4l-21 21z" />
    <glyph glyph-name="uE62E" unicode="&#xe62e;" 
d="M0 480h512v-512h-512v512zM30 299v-301h271v301h-271zM482 -2v301h-151v-301h151zM30 329h452v121h-452v-121z" />
    <glyph glyph-name="uE62F" unicode="&#xe62f;" 
d="M392 450v-331h-392v331h392zM361 149v271h-331v-271h331zM512 329h-91v-30h61v-271h-331v61h-31v-91h392v331z" />
    <glyph glyph-name="uE630" unicode="&#xe630;" 
d="M331 450v-271h-331v271h331zM301 209v211h-271v-211h271zM422 88v272h-60v-31h30v-210h-272v29h-30v-60h332zM512 269h-60v-30h30v-211h-271v30h-30v-60h331v271z" />
    <glyph glyph-name="uE631" unicode="&#xe631;" 
d="M446 290l-52 53l-21 -21l52 -53l-21 -21l-53 52l-158 -157q17 -23 17 -54q0 -37 -26.5 -63.5t-63.5 -26.5t-63.5 26.5t-26.5 63.5q0 38 26.5 64.5t63.5 26.5q29 0 51 -16l246 244l21 -22l-23 -22l52 -52zM120 29q25 0 42.5 17.5t17.5 42.5t-17.5 43t-42.5 18t-42.5 -18
t-17.5 -43t17.5 -42.5t42.5 -17.5z" />
    <glyph glyph-name="uE632" unicode="&#xe632;" 
d="M256 68l146 146l-21 21l-110 -109v325h-30v-325l-110 109l-21 -21zM482 208h30v-195q0 -19 -13 -32t-32 -13h-422q-19 0 -32 13t-13 32v195h30v-195q0 -6 4.5 -10.5t10.5 -4.5h422q6 0 10.5 4.5t4.5 10.5v195z" />
    <glyph glyph-name="uE633" unicode="&#xe633;" 
d="M30 450h452v-452h-452v452zM452 28v60h-392v-60h392zM60 119h392v301h-392v-301zM428 174l-95 92l-40 -43l-78 139l-130 -189l25 -17l102 149l75 -132l47 50l73 -71z" />
    <glyph glyph-name="uE634" unicode="&#xe634;" 
d="M376 460q56 0 96 -39.5t40 -95.5q0 -17 -4 -33l-4 -11q-10 -42 -47 -93.5t-82 -96t-71 -67.5t-39 -33l-9 -7l-9 7q-74 65 -106 97q-106 110 -133 192l-3 11q-5 16 -5 34q0 56 40 95.5t96 39.5q38 0 70 -20t50 -53q18 33 50 53t70 20zM479 300q3 13 3 25q0 44 -31 74.5
t-75 30.5t-74.5 -31t-30.5 -74v-8h-30v8q0 43 -30.5 74t-74.5 31t-75 -30.5t-31 -74.5q0 -13 4 -26l3 -9q12 -37 42 -80.5t67.5 -82.5t62.5 -62.5t47 -42.5q194 165 219 267z" />
    <glyph glyph-name="uE635" unicode="&#xe635;" 
d="M5 291l3 -11q4 -12 15 -35l27 14q-11 22 -13 31l-3 9q-4 13 -4 26q0 44 31 74.5t75 30.5t74.5 -31t30.5 -74h30q0 43 30.5 74t74.5 31t75 -30.5t31 -74.5q0 -11 -3 -25l-4 -11q-3 -12 -12 -32l28 -12q11 25 13 36l4 11q4 16 4 33q0 56 -40 95.5t-96 39.5q-38 0 -70 -20
t-50 -53q-18 33 -50 53t-70 20q-56 0 -96 -39.5t-40 -95.5q0 -18 5 -34zM256 22q87 66 152 151l24 -18q-69 -91 -167 -164l-9 -7l-9 7q-5 2 -28 21t-64 59.5t-73 83.5l24 18q62 -81 150 -151zM427 257l94 -67l-18 -24l-76 54l-85 -60l-86 60l-85 -60l-86 60l-76 -54l-18 24
l94 67l86 -61l85 61l86 -61z" />
    <glyph glyph-name="uE636" unicode="&#xe636;" 
d="M422 347q0 19 -13 32t-32 13q-9 0 -16 -3v8q0 19 -12.5 32t-30.5 13q-8 0 -17 -3q-1 17 -14 29t-31 12t-30.5 -12t-14.5 -29q-7 3 -15 3q-19 0 -32.5 -13t-13.5 -32v-132l-7 8q-27 32 -60 14q-16 -9 -21 -27q-5 -20 4 -33l99 -211q7 -12 17 -16v-17q0 -15 15 -15
q6 0 10.5 4.5t4.5 10.5v27q0 12 -12 14q-4 1 -9 6l-99 211q-3 4 -1 11q2 6 7 9q12 4 22 -8l34 -38q7 -7 17 -4q9 3 9 14v172q0 6 4.5 10.5t11.5 4.5q13 0 15 -13v-138q0 -7 4.5 -11.5t10.5 -4.5t10.5 4.5t4.5 11.5v147v1v26q0 15 15 15q6 0 10.5 -4.5t4.5 -10.5v-24v-1v-148
q0 -6 4.5 -10.5t10.5 -4.5t10.5 4.5t4.5 10.5v135l1 1q0 5 5 9.5t11 4.5q13 0 13 -15v-42v-1v-123q0 -6 4.5 -10.5t10.5 -4.5q15 0 15 15v117q2 14 16 14q15 0 15 -15v-218q0 -20 -18 -74q-13 -39 -13 -49v-23q0 -6 4.5 -10.5t10.5 -4.5q7 0 11.5 4.5t4.5 10.5v23
q0 11 11 40q19 64 19 83v218z" />
    <glyph glyph-name="uE637" unicode="&#xe637;" 
d="M459 317q3 20 -6.5 34.5t-27.5 16.5q-18 3 -30 -7l-1 -1q-2 0 -2 -1l2 29q1 19 -10.5 33t-30.5 16q-18 2 -32 -11q-5 -3 -11 -13v23q0 18 -13 31t-31 13q-19 0 -32 -13t-13 -31v-23q-6 10 -11 13q-14 12 -32 11q-17 -1 -30 -16q-12 -13 -10 -32l11 -165l-15 19
q-10 17 -29 22t-36 -5q-17 -9 -22 -29q-6 -18 5 -36l106 -183q5 -11 18 -18v-11q0 -6 4.5 -10.5t10.5 -4.5q7 0 11.5 4.5t4.5 10.5v21q0 12 -12 14q-8 3 -11 9l-106 183q-4 5 -2 13t8 11q15 9 25 -8l47 -59q7 -8 17 -5q10 4 10 15l-15 214q-1 5 3 11q3 3 10 5q6 0 10 -4
q5 -3 5 -10l16 -160q0 -9 8 -12q7 -3 14 0q4 2 5 3q9 4 9 13l4 199q0 14 14 14t14 -15l3 -184q0 -13 15 -15h7q16 0 16 14l14 144q2 7 5 9q4 4 11 4q13 -2 13 -16l-9 -160q0 -9 7 -13q5 -3 7 -2q7 -5 14 -2t9 12l15 100q2 8 6 11q2 2 8 2q12 -2 8 -18l-35 -242
q-2 -10 -10 -16q-18 -18 -18 -50v-30q0 -6 4.5 -10.5t10.5 -4.5t10.5 4.5t4.5 10.5v30q0 20 10 28q14 14 17 33z" />
    <glyph glyph-name="uE638" unicode="&#xe638;" 
d="M421 311q0 20 -14 34.5t-33 14.5q-6 0 -16 -2q-10 33 -44 33q-7 0 -17 -4q-10 32 -42 32q-33 0 -43 -32q-12 4 -17 4q-19 0 -32.5 -14t-13.5 -34v-55l-1 -1v-22q-12 3 -23 1q-21 -5 -30 -24q-12 -23 -1 -46l51 -110q6 -27 33 -34v-39q0 -6 4.5 -10.5t10.5 -4.5t10.5 4.5
t4.5 10.5v53q0 6 -5 11q-4 4 -12 4q-15 -2 -17 13q-1 1 -1 3l-52 112q-4 12 1 19q4 8 9 8q7 2 17 -2v-25q0 -15 16 -15q15 0 15 15v33v101q0 17 16 17q10 0 14 -11v-81q0 -15 15 -15q6 0 10.5 4.5t4.5 10.5v78v2v22q0 19 16 19q14 0 14 -19v-24v-61q0 -6 4.5 -10.5
t10.5 -4.5q15 0 15 15v61q2 14 15 14q16 0 16 -16v-64q0 -15 15 -15q15 2 15 15v19q0 26 2 29q2 2 12 2q6 0 11 -6t5 -13v-176q0 -13 -13 -28q-17 -24 -17 -40v-54q0 -15 15 -15q6 0 10.5 4.5t4.5 10.5v54q0 7 11 21q20 25 20 47v176z" />
    <glyph glyph-name="uE639" unicode="&#xe639;" 
d="M241 360h271v-392h-512v452h182zM169 390h-139v-121l452 -1v61h-254zM30 -2h452v240l-452 1v-241z" />
    <glyph glyph-name="uE63A" unicode="&#xe63a;" 
d="M392 179l-358 139l358 139v-278zM361 223v190l-244 -95zM452 480h-30v-512h30v512z" />
    <glyph glyph-name="uE63B" unicode="&#xe63b;" 
d="M452 480h-30v-512h30v512zM46 451l87 -122l-88 -119h347v241h-346zM361 420v-180h-256l65 88l-65 92h256z" />
    <glyph glyph-name="uE63C" unicode="&#xe63c;" 
d="M452 480h-30v-512h30v512zM150 450v-60h-120v-241h211v60h150v241h-241zM211 209v-30h-151v181h91v-151h60zM180 420h181v-181h-180v151h-1v30z" />
    <glyph glyph-name="uE63D" unicode="&#xe63d;" 
d="M511 214q2 -5 0 -11q-29 -74 -99.5 -119t-155.5 -45t-155.5 45t-99.5 119q-2 6 0 11q29 74 99 119.5t156 45.5t156 -45.5t99 -119.5zM256 69q74 0 136 38.5t89 101.5q-27 63 -89 101.5t-136 38.5t-136 -38.5t-89 -101.5q27 -63 89 -101.5t136 -38.5zM256 319
q46 0 78 -32.5t32 -77.5q0 -46 -32 -78t-78 -32t-78 32t-32 78q0 45 32 77.5t78 32.5zM256 129q33 0 56.5 23.5t23.5 56.5t-23.5 56.5t-56.5 23.5t-56.5 -23.5t-23.5 -56.5t23.5 -56.5t56.5 -23.5zM256 250q17 0 29 -12t12 -29t-12 -29t-29 -12t-29 12t-12 29t12 29t29 12z
M256 198q11 0 11 11t-11 11t-11 -11t11 -11z" />
    <glyph glyph-name="uE63E" unicode="&#xe63e;" 
d="M131 301l110 113v-325h30v325l110 -113l21 21l-146 150l-146 -150zM482 208h30v-195q0 -19 -13 -32t-32 -13h-422q-19 0 -32 13t-13 32v195h30v-195q0 -6 4.5 -10.5t10.5 -4.5h422q6 0 10.5 4.5t4.5 10.5v195z" />
    <glyph glyph-name="uE63F" unicode="&#xe63f;" 
d="M181 27l110 110l21 -22l-146 -146l-147 146l22 22l110 -110v212h30v-212zM165 12h1h-1zM471 311l22 22l-147 146l-146 -146l21 -22l110 110v-214h30v214z" />
    <glyph glyph-name="uE640" unicode="&#xe640;" 
d="M60 149v241h392v-241h-392zM90 360v-181h332v181h-332zM467 450q19 0 32 -12.5t13 -30.5v-306q0 -17 -13 -30t-32 -13h-422q-19 0 -32 13t-13 30v306q0 18 13 30.5t32 12.5h422zM482 101v306q0 13 -15 13h-422q-15 0 -15 -13v-306q0 -13 15 -13h422q15 0 15 13zM151 28
v-30h210v30h-210z" />
    <glyph glyph-name="uE641" unicode="&#xe641;" 
d="M512 450v-15q0 -49 -6 -100q-9 -75 -30.5 -136.5t-53.5 -76.5q-10 -5 -18 -5q-10 0 -21 6l-7 5q-40 -62 -105 -70v-60h92v-30h-211v30h89v61q-64 6 -105 69l-7 -4q-10 -7 -21 -7q-8 0 -18 5q-32 15 -53.5 76.5t-30.5 136.5q-6 51 -6 100v15h68v15v15h376v-15v-15h68z
M120 154l3 -4q-50 96 -54 270h-39q2 -40 6 -81q9 -78 28.5 -129.5t38.5 -60.5q6 -3 10 0zM256 87q47 0 80 35t49 94.5t22.5 115.5t6.5 118h-316q0 -56 6 -109t21.5 -115.5t49 -100.5t81.5 -38zM476 339q4 41 6 81h-38q-6 -178 -56 -272l4 6l7 -5q4 -3 10 0q19 9 38.5 60.5
t28.5 129.5z" />
    <glyph glyph-name="uE642" unicode="&#xe642;" 
d="M380 277l137 115l-52 -394h-418l-52 394l135 -115l127 201zM74 28h364l4 30h-372zM446 88l31 231l-104 -88l-116 190l-120 -190l-102 87l31 -230h380z" />
    <glyph glyph-name="uE643" unicode="&#xe643;" 
d="M512 435q0 19 -13 32t-32 13h-422q-19 0 -32 -13t-13 -32v-240q0 -19 13 -32t32 -13h15v-124l104 91l-20 23l-54 -47v87h-45q-6 0 -10.5 4.5t-4.5 10.5v240q0 6 4.5 10.5t10.5 4.5h422q6 0 10.5 -4.5t4.5 -10.5v-240q0 -6 -4.5 -10.5t-10.5 -4.5h-15v-30h15q19 0 32 13
t13 32v240zM422 193q0 19 -13 32t-32 13h-151q-19 0 -32 -13t-13 -32v-92q0 -19 13 -32t32 -13h26l110 -92v92h15q19 0 32 13t13 32v92zM392 193v-92q0 -6 -4.5 -10.5t-10.5 -4.5h-45v-58l-69 58h-37q-6 0 -10.5 4.5t-4.5 10.5v92q0 6 4.5 10.5t10.5 4.5h151q6 0 10.5 -4.5
t4.5 -10.5z" />
    <glyph glyph-name="uE644" unicode="&#xe644;" 
d="M467 480q19 0 32 -13t13 -32v-301q0 -19 -13 -32.5t-32 -13.5h-266l-141 -123v123h-15q-19 0 -32 13.5t-13 32.5v301q0 19 13 32t32 13h422zM482 134v301q0 6 -4.5 10.5t-10.5 4.5h-422q-6 0 -10.5 -4.5t-4.5 -10.5v-301q0 -15 15 -15h45v-88l100 88h277q15 0 15 15z" />
    <glyph glyph-name="uE645" unicode="&#xe645;" 
d="M467 480q19 0 32 -13t13 -32v-301q0 -19 -13 -32.5t-32 -13.5h-266l-141 -123v123h-15q-19 0 -32 13.5t-13 32.5v301q0 19 13 32t32 13h422zM482 134v301q0 6 -4.5 10.5t-10.5 4.5h-422q-6 0 -10.5 -4.5t-4.5 -10.5v-301q0 -15 15 -15h45v-88l100 88h277q15 0 15 15z
M90 390v-30h332v30h-332zM90 329v-30h332v30h-332zM90 269v-30h181v30h-181z" />
    <glyph glyph-name="uE646" unicode="&#xe646;" 
d="M277 224l200 200l-21 21l-200 -200l-200 200l-21 -21l200 -200l-200 -200l21 -21l200 200l200 -200l21 21z" />
    <glyph glyph-name="uE647" unicode="&#xe647;" 
d="M362 352q0 40 -28.5 69.5t-78.5 29.5t-77 -29.5t-27 -69.5v-286v-2q0 -26 22 -46t51 -20q31 0 54 20.5t23 46.5v44l1 194q0 56 -45 56q-46 0 -46 -55v-155h30v155q0 17 3.5 21t12.5 4q5 0 7 -1t4.5 -7t2.5 -18v-230v-8q0 -13 -14 -25t-33 -12q-17 0 -30 11t-13 25v44v244
q0 25 17.5 47t56.5 22q37 0 57 -20.5t20 -48.5v-255h30v255z" />
    <glyph glyph-name="uE648" unicode="&#xe648;" 
d="M493 122l-237 236l-237 -236l22 -22l215 216l215 -216z" />
    <glyph glyph-name="uE649" unicode="&#xe649;" 
d="M398 225l-237 236l-21 -21l215 -215l-215 -215l21 -22z" />
    <glyph glyph-name="uE64A" unicode="&#xe64a;" 
d="M157 225l215 215l-21 21l-237 -236l237 -237l21 22z" />
    <glyph glyph-name="uE64B" unicode="&#xe64b;" 
d="M493 327l-22 21l-215 -215l-215 215l-22 -21l237 -236z" />
    <glyph glyph-name="uE64C" unicode="&#xe64c;" 
d="M464 427l-25 16l-247 -377l-122 109l-20 -22l148 -133z" />
    <glyph glyph-name="uE64D" unicode="&#xe64d;" 
d="M422 306v-278h-362v362h223v30h-253v-422h422v308h-30zM146 235l77 -78l209 316l25 -16l-229 -347l-103 103z" />
    <glyph glyph-name="uE64E" unicode="&#xe64e;" 
d="M179 390h333v-362h-512v362h92v30h87v-30zM482 58v211h-47q17 -31 17 -60q0 -50 -35.5 -85.5t-85.5 -35.5q-49 0 -84.5 35.5t-35.5 85.5q0 32 17 60h-198v-211h452zM422 209q0 37 -26.5 63.5t-64.5 26.5q-37 0 -63.5 -26.5t-26.5 -63.5t26.5 -63.5t63.5 -26.5
q38 0 64.5 26.5t26.5 63.5zM410 299h72v61h-452v-61h222q35 30 79 30q46 0 79 -30z" />
    <glyph glyph-name="uE64F" unicode="&#xe64f;" 
d="M496 413q16 0 16 -16v-345q0 -6 -4.5 -10.5t-11.5 -4.5h-58q-7 0 -11.5 4.5t-4.5 10.5v20l-95 17q-8 -35 -36 -57.5t-65 -22.5q-44 0 -74.5 30t-30.5 73q0 10 1 15l-31 6v-10q0 -10 -7 -17t-17 -7h-43q-10 0 -17 7t-7 17v141q0 10 7 17t17 7h43q10 0 17 -7t7 -17v-8
l331 121v20q0 16 16 16h58zM226 39q26 0 46 15.5t26 40.5l-146 27q0 -2 -0.5 -5.5t-0.5 -4.5q0 -30 22 -51.5t53 -21.5zM482 67v316h-30v-27l-391 -143v44h-31v-128h31v40l391 -72v-30h30z" />
    <glyph glyph-name="uE650" unicode="&#xe650;" 
d="M479 426l-25 17l-195 -286l24 -17zM271 59q0 25 -17.5 42.5t-42.5 17.5q-14 0 -44 -18l-137 -103h165h16q25 0 42.5 18t17.5 43zM241 59q0 -13 -9 -22t-21 -9h-17h-74l65 49q16 12 26 12q12 0 21 -9t9 -21z" />
    <glyph glyph-name="uE651" unicode="&#xe651;" 
d="M211 88h90v46h-30v-15h-30v15h-30v-46zM512 149v241h-109q-21 41 -60.5 65.5t-86.5 24.5t-86.5 -24.5t-60.5 -65.5h-109v-241h30v-181h452v181h30zM144 390q39 60 112 60t112 -60h-224zM452 149v-151h-392v151h392zM482 360v-181h-452v181h452z" />
    <glyph glyph-name="uE652" unicode="&#xe652;" 
d="M431 419l-98 -151h88l-286 -242l61 182h-51l71 211h215zM339 238h-61l98 151h-139l-50 -151h50l-39 -120z" />
    <glyph glyph-name="uE653" unicode="&#xe653;" 
d="M356 239h-147l116 172l-25 17l-148 -219h154l-92 -174l27 -14z" />
    <glyph glyph-name="uE654" unicode="&#xe654;" 
d="M271 420h211v-301h-452v301h211v60h30v-60zM452 149v241h-392v-241h392zM105 88v-30h79l-46 -70l25 -16l56 86h22v-90h30v90h22l56 -86l25 16l-45 70h78v30h-302z" />
    <glyph glyph-name="uE655" unicode="&#xe655;" 
d="M392 360h90v-392h-452v392h91v72q0 20 14.5 34t34.5 14h172q20 0 35 -14.5t15 -33.5v-72zM151 432v-72h210v72q0 8 -5.5 13t-13.5 5h-172q-8 0 -13.5 -5.5t-5.5 -12.5zM452 -2v241h-392v-241h392zM452 269v60h-60v-19h-31v19h-210v-19h-30v19h-61v-60h392z" />
    <glyph glyph-name="uE656" unicode="&#xe656;" 
d="M410 138l86 86l-86 86l-22 -22l50 -49h-167v167l49 -50l22 22l-86 86l-86 -86l22 -22l49 50v-167h-167l50 49l-22 22l-86 -86l86 -86l22 22l-50 49h167v-167l-49 50l-22 -22l86 -86l86 86l-22 22l-49 -50v167h167l-50 -49z" />
    <glyph glyph-name="uE657" unicode="&#xe657;" 
d="M351 117l-80 -82v378l80 -82l21 21l-116 119l-116 -119l21 -21l80 82v-378l-80 82l-21 -21l116 -119l116 119z" />
    <glyph glyph-name="uE658" unicode="&#xe658;" 
d="M503 224l-119 116l-21 -21l82 -80h-378l82 80l-21 21l-119 -116l119 -116l21 21l-82 80h378l-82 -80l21 -21z" />
    <glyph glyph-name="uE659" unicode="&#xe659;" 
d="M482 138h-30v-88l-175 174l175 174v-88h30v140h-140v-30h88l-174 -175l-174 175h88v30h-140v-140h30v88l175 -174l-175 -174v88h-30v-140h140v30h-88l174 175l174 -175h-88v-30h140v140z" />
    <glyph glyph-name="uE65A" unicode="&#xe65a;" 
d="M482 450h-272v-30h220l-310 -310l21 -22l311 311v-220h30v271z" />
    <glyph glyph-name="uE65B" unicode="&#xe65b;" 
d="M370 88l21 22l-310 310h220v30h-272v-271h30v220z" />
    <glyph glyph-name="uE65C" unicode="&#xe65c;" 
d="M256 306l-131 -132l21 -21l110 110l110 -110l21 21zM512 224q0 106 -75 181t-181 75t-181 -75t-75 -181t75 -181t181 -75t181 75t75 181zM482 224q0 -94 -66 -160t-160 -66t-160 66t-66 160t66 160t160 66t160 -66t66 -160z" />
    <glyph glyph-name="uE65D" unicode="&#xe65d;" 
d="M206 355l-21 -21l110 -110l-110 -110l21 -21l132 131zM512 224q0 106 -75 181t-181 75t-181 -75t-75 -181t75 -181t181 -75t181 75t75 181zM482 224q0 -94 -66 -160t-160 -66t-160 66t-66 160t66 160t160 66t160 -66t66 -160z" />
    <glyph glyph-name="uE65E" unicode="&#xe65e;" 
d="M327 334l-21 21l-132 -131l132 -131l21 21l-110 110zM512 224q0 106 -75 181t-181 75t-181 -75t-75 -181t75 -181t181 -75t181 75t75 181zM482 224q0 -94 -66 -160t-160 -66t-160 66t-66 160t66 160t160 66t160 -66t66 -160z" />
    <glyph glyph-name="uE65F" unicode="&#xe65f;" 
d="M366 295l-110 -110l-110 110l-21 -21l131 -132l131 132zM512 224q0 106 -75 181t-181 75t-181 -75t-75 -181t75 -181t181 -75t181 75t75 181zM482 224q0 -94 -66 -160t-160 -66t-160 66t-66 160t66 160t160 66t160 -66t66 -160z" />
    <glyph glyph-name="uE660" unicode="&#xe660;" 
d="M256 297l-206 -206l21 -22l185 186l185 -186l21 22zM256 400l-185 -185l-21 22l206 206l206 -206l-21 -22z" />
    <glyph glyph-name="uE661" unicode="&#xe661;" 
d="M290 224l-206 206l-21 -21l185 -185l-185 -185l21 -21zM230 430l206 -206l-206 -206l-21 21l185 185l-185 185z" />
    <glyph glyph-name="uE662" unicode="&#xe662;" 
d="M241 224l185 185l-22 21l-206 -206l206 -206l22 21zM280 409l-185 -185l185 -185l-21 -21l-207 206l207 206z" />
    <glyph glyph-name="uE663" unicode="&#xe663;" 
d="M256 159l206 207l-21 21l-185 -185l-185 185l-21 -21zM256 56l185 185l21 -21l-206 -206l-206 206l21 21z" />
    <glyph glyph-name="uE664" unicode="&#xe664;" 
d="M291 480l161 -160v-352h-392v512h231zM301 428v-99h99zM90 -2h332v301h-151v151h-60v-30h-30v30h-91v-452zM151 239v-30h30v30h-30zM181 239h30v30h-30v-30zM181 299h30v30h-30v-30zM151 299v-30h30v30h-30zM151 360v-31h30v31h-30zM181 360h30v30h-30v-30zM151 420v-30
h30v30h-30zM181 197q25 0 42.5 -17.5t17.5 -42.5q0 -15 -8 -29q-15 -28 -46 -31h-6q-25 0 -43 17.5t-18 42.5t18 42.5t43 17.5zM207 123q4 5 4 14q0 13 -9 21.5t-21 8.5q-13 0 -21.5 -8.5t-8.5 -21.5t8.5 -21.5t21.5 -8.5h3q15 1 23 16z" />
    <glyph glyph-name="uE665" unicode="&#xe665;" 
d="M256 480q106 0 181 -75t75 -181t-75 -181t-181 -75t-181 75t-75 181t75 181t181 75zM31 209q3 -49 26 -90h78q-13 43 -15 90h-89zM120 239q2 47 15 90h-78q-23 -41 -26 -90h89zM167 329q-16 -45 -17 -90h212q-3 50 -17 90h-178zM150 209q1 -45 17 -90h178q14 40 17 90
h-212zM392 209q-2 -48 -16 -90h80q21 38 26 90h-90zM392 239h90q-5 52 -26 90h-79q13 -43 15 -90zM437 360q-46 60 -118 81q30 -41 47 -81h71zM273 449q-2 0 -8 0.5t-9 0.5t-9 -0.5t-9 -0.5q-37 -41 -59 -89h154q-23 49 -60 89zM192 440q-70 -19 -116 -80h70q19 45 46 80z
M76 88q46 -60 117 -81q-30 41 -47 81h-70zM239 -1q3 0 8.5 -0.5t8.5 -0.5t9 0.5t8 0.5q37 40 60 89h-154q23 -49 60 -89zM319 7q72 21 118 81h-71q-19 -44 -47 -81z" />
    <glyph glyph-name="uE666" unicode="&#xe666;" 
d="M328 93q-9 -42 -41.5 -68.5t-75.5 -26.5q-50 0 -85.5 35.5t-35.5 85.5q0 41 25 73.5t65 42.5l-8 29q-49 -13 -80.5 -53.5t-31.5 -91.5q0 -62 44.5 -106.5t106.5 -44.5q53 0 94.5 33.5t52.5 85.5zM482 25h-32l-29 124h-181l-5 61l115 29l-7 29l-110 -27l-8 120
q20 5 33 21.5t13 37.5q0 25 -17.5 42.5t-42.5 17.5t-42.5 -17.5t-17.5 -42.5q0 -21 12.5 -37t31.5 -21l16 -244h186l29 -124h56v31zM211 390q-13 0 -21.5 8.5t-8.5 21.5q0 12 8.5 21t21.5 9q12 0 21 -9t9 -21q0 -13 -9 -21.5t-21 -8.5z" />
    <glyph glyph-name="uE667" unicode="&#xe667;" 
d="M0 480h512v-120h-512v120zM482 390v60h-452v-60h452zM0 179v120h512v-120h-512zM30 269v-60h452v60h-452zM0 -2v121h512v-121h-512zM30 88v-60h452v60h-452z" />
    <glyph glyph-name="uE668" unicode="&#xe668;" 
d="M151 480h361v-120h-361v120zM482 390v60h-301v-60h301zM151 179v120h361v-120h-361zM181 269v-60h301v60h-301zM151 -2v121h361v-121h-361zM181 88v-60h301v60h-301zM0 360v120h120v-120h-120zM30 450v-60h60v60h-60zM0 179v120h120v-120h-120zM30 269v-60h60v60h-60z
M0 -2v121h120v-121h-120zM30 88v-60h60v60h-60z" />
    <glyph glyph-name="uE669" unicode="&#xe669;" 
d="M0 269v211h211v-211h-211zM30 450v-151h151v151h-151zM301 480h211v-211h-211v211zM482 299v151h-151v-151h151zM0 -32v211h211v-211h-211zM30 149v-151h151v151h-151zM301 -32v211h211v-211h-211zM331 149v-151h151v151h-151z" />
    <glyph glyph-name="uE66A" unicode="&#xe66a;" 
d="M211 360h-181v-61h30v30h60v-241h-30v-30h91v30h-30v241h60v-30h30v61h-30zM452 360h30v-61h-30v30h-60v-241h30v-30h-91v30h30v241h-60v-30h-30v61h181z" />
    <glyph glyph-name="uE66B" unicode="&#xe66b;" 
d="M512 -2h-512v-30h512v30zM241 429l-110 -110l-21 21l146 146l146 -146l-21 -21l-110 110v-341h-30v341z" />
    <glyph glyph-name="uE66C" unicode="&#xe66c;" 
d="M452 450h-91v-30h31v-195q0 -56 -40 -95.5t-96 -39.5t-96 39.5t-40 95.5v195h31v30h-91v-30h30v-195q0 -68 49 -116.5t117 -48.5t117 48.5t49 116.5v195h30v30zM60 -2v30h392v-30h-392z" />
    <glyph glyph-name="uE66D" unicode="&#xe66d;" 
d="M512 390v-361h-60v-1q0 -25 -17.5 -42.5t-42.5 -17.5t-43 17.5t-18 42.5v1h-150v-1q0 -25 -18 -42.5t-43 -17.5t-42.5 17.5t-17.5 42.5v1h-60v150h58l36 120h87v91h331zM117 269l-27 -90h91v90h-64zM120 -2q13 0 22 9t9 21q0 13 -9 21.5t-22 8.5q-12 0 -21 -8.5t-9 -21.5
q0 -12 9 -21t21 -9zM392 -2q12 0 21 9t9 21q0 13 -9 21.5t-21 8.5q-13 0 -22 -8.5t-9 -21.5q0 -12 9 -21t22 -9zM482 59v301h-271v-211h-181v-90h39q18 29 51 29q34 0 52 -29h168q18 29 52 29q33 0 51 -29h39z" />
    <glyph glyph-name="uE66E" unicode="&#xe66e;" 
d="M271 419q89 -6 150 -71t61 -154q0 -94 -66 -160t-160 -66t-160 66t-66 160q0 89 61 154t150 71v31h-45v30h120v-30h-45v-31zM256 -2q81 0 138.5 57.5t57.5 138.5t-57.5 138.5t-138.5 57.5t-138.5 -57.5t-57.5 -138.5t57.5 -138.5t138.5 -57.5zM271 209v90h-30v-120h151
v30h-121z" />
    <glyph glyph-name="uE66F" unicode="&#xe66f;" 
d="M286 450h106v-452h-106v15q0 13 -8.5 21.5t-21.5 8.5t-21.5 -8.5t-8.5 -21.5v-15h-106v452h106v-15q0 -13 8.5 -21.5t21.5 -8.5t21.5 8.5t8.5 21.5v15zM198 420h-47v-181h210v181h-47q-5 -20 -21 -32.5t-37 -12.5t-37 12.5t-21 32.5zM314 28h47v181h-210v-181h47
q5 20 21 32.5t37 12.5t37 -12.5t21 -32.5z" />
    <glyph glyph-name="uE670" unicode="&#xe670;" 
d="M463 187q19 14 19 37q0 19 -13.5 32t-32.5 13h-116l12 64q9 44 -3 63q-11 21 -36 21t-43 -28l-93 -150h-69q-6 0 -10.5 -4.5t-4.5 -10.5q0 -7 4.5 -11.5t10.5 -4.5h78q9 0 12 8l98 157q8 14 17 14q8 0 10 -6q7 -10 -1 -42l-15 -82q-1 -7 3 -13q5 -5 11 -5h135
q7 0 11.5 -4.5t4.5 -10.5q0 -7 -5 -11.5t-11 -4.5h-19h-1h-30q-15 0 -15 -15q0 -6 4.5 -10.5t10.5 -4.5h33h5q10 0 11.5 -2t1.5 -13q0 -15 -14 -15h-43q-15 0 -15 -15q0 -6 4.5 -10.5t10.5 -4.5h23q21 0 21 -15t-16 -15h-38q-15 0 -15 -15q0 -6 4.5 -10.5t10.5 -4.5h3
q21 0 26 -2.5t5 -13.5q0 -6 -3 -11q-3 -3 -13 -3h-170q-11 0 -31 14q-21 17 -36 17h-63q-6 0 -10.5 -4.5t-4.5 -10.5q0 -15 15 -15h63q4 0 18 -10q26 -21 49 -21h170q22 0 35 12q12 12 12 33q-2 14 -4 21q23 12 23 39q0 13 -6 23q19 13 19 37q0 12 -4 24z" />
    <glyph glyph-name="uE671" unicode="&#xe671;" 
d="M439 194q0 6 -4.5 10.5t-10.5 4.5h-78q-8 0 -13 -7l-97 -158q-8 -13 -17 -13q-7 0 -10 5q-7 11 1 42l15 83q2 7 -3 12q-4 5 -12 5h-134q-16 0 -16 16q0 6 4.5 10.5t11.5 4.5h19h1h30q6 0 10.5 4.5t4.5 10.5t-4.5 10.5t-10.5 4.5h-30q-7 1 -14 6.5t-7 9.5q0 14 14 14h43
q6 0 10.5 4.5t4.5 10.5q0 15 -15 15h-23q-21 0 -21 16q0 14 16 14h38q6 0 10.5 4.5t4.5 10.5t-4.5 10.5t-10.5 4.5h-4q-30 0 -30 16q0 8 3 11.5t13 3.5h170q12 0 31 -15q20 -16 36 -16h63q15 0 15 15q0 6 -4.5 10.5t-10.5 4.5h-63q-4 0 -18 10q-26 21 -49 21h-170
q-22 0 -34.5 -12t-12.5 -33q0 -11 5 -21q-24 -12 -24 -39q0 -13 6 -23q-19 -13 -19 -37q0 -12 8 -22q-23 -13 -23 -39q0 -19 13.5 -32.5t32.5 -13.5h116l-12 -64q-9 -43 3 -63t36 -20q26 0 43 28l93 150h69q6 0 10.5 4.5t4.5 10.5z" />
    <glyph glyph-name="uE672" unicode="&#xe672;" 
d="M422 420h-332v-91h30v61h121v-362h-50v-30h130v30h-50v362h121v-61h30v91z" />
    <glyph glyph-name="uE673" unicode="&#xe673;" 
d="M512 -2h-512v-30h512v30zM157 240l-114 -103l-20 22l132 119l124 -89l153 171h-72v30h122v-122h-30v69l-169 -188z" />
    <glyph glyph-name="uE674" unicode="&#xe674;" 
d="M156 215l124 89l153 -170h-72v-30h122v121h-30v-69l-169 189l-126 -91l-114 102l-20 -22zM0 -2h512v-30h-512v30z" />
    <glyph glyph-name="uE675" unicode="&#xe675;" 
d="M321 84l-50 -50v114h-30v-114l-50 50l-21 -21l86 -86l86 86zM241 414l-50 -50l-21 21l86 86l86 -86l-21 -21l-50 50v-114h-30v114zM0 239h512v-30h-512v30z" />
    <glyph glyph-name="uE676" unicode="&#xe676;" 
d="M66 239l50 50l-21 21l-86 -86l86 -86l21 21l-50 50h114v30h-114zM417 310l86 -86l-86 -86l-21 21l50 50h-114v30h114l-50 50zM241 -32v512h30v-512h-30z" />
    <glyph glyph-name="uE677" unicode="&#xe677;" 
d="M181 302h-181v-61h30v30h60v-241h-30v-30h91v30h-31v241h61v-30h30v61h-30zM482 420h30v-78h-30v48h-121v-362h31v-30h-91v30h30v362h-120v-48h-30v78h301z" />
    <glyph glyph-name="uE678" unicode="&#xe678;" 
d="M256 329q44 0 74.5 -30.5t30.5 -74.5t-30.5 -74.5t-74.5 -30.5t-74.5 30.5t-30.5 74.5t30.5 74.5t74.5 30.5zM256 149q32 0 53.5 21.5t21.5 53.5t-21.5 53.5t-53.5 21.5t-53.5 -21.5t-21.5 -53.5t21.5 -53.5t53.5 -21.5zM271 360v90h-30v-90h30zM241 88v-90h30v90h-30z
M482 239h-90v-30h90v30zM120 209v30h-90v-30h90zM362 309l64 64l-21 21l-64 -64zM150 139l-64 -64l21 -21l64 64zM362 139l-21 -21l64 -64l21 21zM150 309l21 21l-64 64l-21 -21z" />
    <glyph glyph-name="uE679" unicode="&#xe679;" 
d="M252 370l-22 -21l110 -110h-340v-30h340l-110 -110l22 -21l146 146zM482 480h30v-512h-30v512z" />
    <glyph glyph-name="uE67A" unicode="&#xe67a;" 
d="M512 209v30h-340l110 110l-22 21l-146 -146l146 -146l22 21l-110 110h340zM0 -32v512h30v-512h-30z" />
    <glyph glyph-name="uE67B" unicode="&#xe67b;" 
d="M452 449h30v-205q0 -47 -23 -89.5t-52 -68.5t-66 -47.5t-54 -29t-27 -10.5l-5 -2l-5 2q-9 3 -27 10.5t-54 29.5t-65 48.5t-51.5 68t-22.5 87.5v206h30q0 -37 27 -63.5t64 -26.5t63.5 26.5t26.5 63.5h30q0 -37 26.5 -63.5t63.5 -26.5t64 26.5t27 63.5zM60 243
q0 -40 20 -76.5t53 -63t57.5 -41.5t50.5 -27v335q-36 -41 -90 -41q-55 0 -91 41v-127zM452 244v126q-36 -41 -91 -41q-54 0 -90 41v-334q25 11 50.5 26.5t58 41t52.5 62.5t20 78z" />
    <glyph glyph-name="uE67C" unicode="&#xe67c;" 
d="M30 480h452v-512h-452v512zM452 -2v452h-60v-33q30 -11 30 -42q0 -19 -13.5 -32.5t-32.5 -13.5q-18 0 -31.5 13.5t-13.5 32.5q0 31 30 42v33h-90v-33q30 -10 30 -42q0 -19 -13 -32.5t-32 -13.5t-32 13.5t-13 32.5q0 32 30 42v33h-90v-33q30 -11 30 -42q0 -19 -13.5 -32.5
t-31.5 -13.5q-19 0 -32.5 13.5t-13.5 32.5q0 31 30 42v33h-60v-452h392zM151 375q0 6 -4.5 10.5t-10.5 4.5q-7 0 -11.5 -4.5t-4.5 -10.5q0 -15 16 -15q15 0 15 15zM271 375q0 6 -4.5 10.5t-10.5 4.5t-10.5 -4.5t-4.5 -10.5q0 -15 15 -15t15 15zM392 375q0 6 -4.5 10.5
t-11.5 4.5q-6 0 -10.5 -4.5t-4.5 -10.5q0 -15 15 -15q16 0 16 15z" />
    <glyph glyph-name="uE67D" unicode="&#xe67d;" 
d="M512 375q0 -5 -2 -15h2v-287q0 -48 -77.5 -76.5t-178.5 -28.5t-178.5 28.5t-77.5 76.5v287h2q-2 10 -2 15q0 48 77.5 76.5t178.5 28.5t178.5 -28.5t77.5 -76.5zM256 450q-93 0 -159.5 -23.5t-66.5 -51.5q0 -20 33 -37q70 -39 193 -39t193 39q33 17 33 37q0 28 -66.5 51.5
t-159.5 23.5zM256 -2q93 0 159.5 23.5t66.5 51.5v50q-12 -9 -18 -13v0q-66 -36 -177 -41q-5 0 -15.5 -0.5t-15.5 -0.5q-132 0 -208 42q-6 4 -18 13v-50q0 -28 66.5 -51.5t159.5 -23.5zM449 137q33 19 33 37v49q-8 -6 -18 -12q-76 -42 -208 -42t-208 42q-10 6 -18 12v-49
q0 -18 33 -37q59 -33 164 -38q5 0 14.5 -0.5t14.5 -0.5q123 0 193 39zM449 237q33 19 33 37v49q-8 -6 -18 -12q-76 -42 -208 -42t-208 42q-10 6 -18 12v-49q0 -18 33 -37q68 -38 193 -38t193 38z" />
    <glyph glyph-name="uE67E" unicode="&#xe67e;" 
d="M220 273v-2q-4 -59 -22.5 -105t-41 -69t-48 -37.5t-38.5 -18t-17 -3.5l-4 30q90 23 124 117q-28 -18 -59 -18q-44 0 -75 31t-31 75t31 75.5t75 31.5t75 -31.5t31 -75.5zM114 197q32 0 54 22.5t22 53.5t-22 53.5t-54 22.5t-54 -22.5t-22 -53.5t22 -53.5t54 -22.5zM504 271
q-4 -59 -22.5 -105t-41 -69t-48 -37.5t-38.5 -18t-17 -3.5l-4 30q92 23 125 117q-28 -18 -60 -18q-44 0 -75 31t-31 75t31 75.5t75 31.5t75 -31.5t31 -75.5v-2zM398 197q32 0 54 22.5t22 53.5t-22 53.5t-54 22.5t-54 -22.5t-22 -53.5t22 -53.5t54 -22.5z" />
    <glyph glyph-name="uE67F" unicode="&#xe67f;" 
d="M397 251q44 0 75 -31.5t31 -75.5t-31.5 -75t-74.5 -31q-44 0 -75.5 31t-31.5 75v1q1 1 1 2h-1q3 56 21 100.5t38 67.5t46 39t39 20t23 6h1l3 -30q-90 -23 -124 -118q27 19 60 19zM397 68q31 0 53.5 22t22.5 54t-22.5 54.5t-53.5 22.5t-54 -22.5t-23 -54.5
q0 -31 22.5 -53.5t54.5 -22.5zM112 251q44 0 75.5 -31.5t31.5 -75.5t-31.5 -75t-75.5 -31t-75 31t-31 75v3q3 56 21 100.5t38 67.5t46 39t39 20t23 6h1l3 -30q-90 -23 -124 -118q27 19 59 19zM112 68q32 0 54.5 22.5t22.5 53.5q0 32 -22.5 54.5t-54.5 22.5
q-31 0 -53.5 -22.5t-22.5 -54.5t22 -54t54 -22z" />
    <glyph glyph-name="uE680" unicode="&#xe680;" 
d="M432 239h80v-30h-100l-34 79l-108 -308l-119 388l-50 -159h-101v30h79l72 232l121 -395l103 295z" />
    <glyph glyph-name="uE681" unicode="&#xe681;" 
d="M512 299v-241h-90v-93h-332v93h-90v241h90v181h196l135 -126v-55h91zM301 425v-65h70zM120 450v-151h271v30h-120v121h-151zM392 -5v151h-272v-151h272zM482 88v181h-452v-181h60v88h332v-88h60zM331 88v31h-180v-31h180zM271 28v30h-120v-30h120zM90 209v30h-30v-30h30z
M151 209v30h-31v-30h31z" />
    <glyph glyph-name="uE682" unicode="&#xe682;" 
d="M482 194q0 79 -50 141t-127 79l-7 -29q67 -15 110.5 -69t43.5 -122q0 -81 -57.5 -138.5t-138.5 -57.5t-138.5 57.5t-57.5 138.5q0 68 43.5 122.5t110.5 68.5l-7 30q-77 -17 -127 -79.5t-50 -141.5q0 -94 66 -160t160 -66t160 66t66 160zM271 480v-301h-30v301h30z" />
    <glyph glyph-name="uE683" unicode="&#xe683;" 
d="M90 360h332v-151q0 -62 -49 -106.5t-117 -44.5t-117 44.5t-49 106.5v151zM392 209v120h-272v-120q0 -50 40 -85.5t96 -35.5t96 35.5t40 85.5zM211 390v90h-30v-90h30zM331 390v90h-30v-90h30zM241 58v-90h30v90h-30zM331 239v30h-150v-30h150zM331 179v30h-150v-30h150z
" />
    <glyph glyph-name="uE684" unicode="&#xe684;" 
d="M451 211q-5 -77 -61.5 -130t-133.5 -53q-81 0 -138.5 57.5t-57.5 138.5q0 76 52.5 133t128.5 62l-2 30q-88 -6 -148.5 -71.5t-60.5 -153.5q0 -94 66 -160t160 -66q88 0 153.5 61t71.5 150zM512 254q0 93 -66 159.5t-159 66.5h-15v-241h225h15v15zM481 269h-179v180
q72 -5 123 -57t56 -123z" />
    <glyph glyph-name="uE685" unicode="&#xe685;" 
d="M482 449v-30h-120v-421h-30v421h-61v-421h-30v213h-91q-49 0 -84 35t-35 84t35 84t84 35h332zM241 241v178h-91q-37 0 -63 -26t-26 -63t26 -63t63 -26h91z" />
    <glyph glyph-name="uE686" unicode="&#xe686;" 
d="M0 480h512v-512h-512v512zM482 -2v452h-452v-452h452zM120 172q-17 5 -27.5 19t-10.5 32t10.5 32t27.5 19v86h31v-86q17 -5 27.5 -19t10.5 -32t-10.5 -32t-27.5 -19v-84h-31v84zM136 247q-10 0 -17 -7t-7 -17t7 -16.5t17 -6.5t16.5 6.5t6.5 16.5t-6.5 17t-16.5 7z
M241 236q-17 5 -28 19t-11 32t11 32t28 19v22h30v-22q17 -5 28 -19t11 -32t-11 -32t-28 -19v-148h-30v148zM256 311q-10 0 -17 -7t-7 -17t7 -16.5t17 -6.5t17 6.5t7 16.5t-7 17t-17 7zM376 76q-22 0 -37.5 16t-15.5 38q0 18 10.5 32t27.5 19v179h31v-179q17 -5 27.5 -19
t10.5 -32q0 -22 -16 -38t-38 -16zM376 153q-10 0 -16.5 -6.5t-6.5 -16.5t7 -17t16 -7q10 0 17 7t7 17t-7 16.5t-17 6.5z" />
    <glyph glyph-name="uE687" unicode="&#xe687;" 
d="M257 481l255 -97v-322l-256 -96l-256 96v322zM454 374l-198 75l-77 -30l197 -74zM256 299l78 30l-198 74l-78 -29zM30 352v-269l211 -79v269zM271 4l211 79v269l-211 -79v-269z" />
    <glyph glyph-name="uE688" unicode="&#xe688;" 
d="M445 346l-174 80v-311q0 -1 0.5 -2.5t0.5 -2.5q0 -36 -26 -62t-62 -26q-37 0 -62.5 26t-25.5 62t25.5 62t62.5 26q32 0 57 -22v297l216 -100zM184 52q24 0 40.5 17t16.5 41t-16.5 41t-40.5 17t-41 -17t-17 -41t17 -41t41 -17z" />
    <glyph glyph-name="uE689" unicode="&#xe689;" 
d="M181 472l331 -65v-353q-1 -36 -26.5 -61t-61.5 -25t-62 25.5t-26 62.5q0 36 26 62t62 26q32 0 58 -23v141l-271 53v-184v-3v-3v0q-2 -35 -27 -59.5t-61 -24.5t-61.5 25.5t-25.5 61.5q0 37 25.5 62.5t61.5 25.5q33 0 58 -22v278zM123 71q23 0 39.5 15.5t18.5 38.5v6
q-2 23 -18.5 39t-39.5 16t-40 -17t-17 -41q0 -23 17 -40t40 -17zM211 346l271 -53v89l-271 53v-89zM424 -2q24 0 41 17t17 41t-17 40.5t-41 16.5t-40.5 -16.5t-16.5 -40.5t16.5 -41t40.5 -17z" />
    <glyph glyph-name="uE68A" unicode="&#xe68a;" 
d="M256 480q68 0 117 -48.5t49 -117.5v-180q0 -69 -49 -117.5t-117 -48.5t-117 48.5t-49 117.5v180q0 69 49 117.5t117 48.5zM392 134v180q0 56 -40 96t-96 40t-96 -40t-40 -96v-180q0 -56 40 -96t96 -40t96 40t40 96zM256 375q19 0 32 -13.5t13 -32.5v-60q0 -19 -13 -32
t-32 -13t-32 13t-13 32v60q0 19 13 32.5t32 13.5zM271 269v60q0 15 -15 15t-15 -15v-60q0 -6 4.5 -10.5t10.5 -4.5t10.5 4.5t4.5 10.5z" />
    <glyph glyph-name="uE68B" unicode="&#xe68b;" 
d="M256 480q68 0 117 -48.5t49 -117.5v-180q0 -69 -49 -117.5t-117 -48.5t-117 48.5t-49 117.5v180q0 69 49 117.5t117 48.5zM392 314q0 52 -35 90.5t-86 43.5v-149h121v15zM241 448q-51 -5 -86 -43.5t-35 -90.5v-15h121v149zM256 -2q56 0 96 40t40 96v135h-272v-135
q0 -56 40 -96t96 -40z" />
    <glyph glyph-name="uE68C" unicode="&#xe68c;" 
d="M323 192q38 -32 38 -78q0 -38 -25.5 -66t-64.5 -33v-47h-30v47q-39 5 -64.5 33t-25.5 66h30q0 -25 17 -44.5t43 -24.5v172l-55 42v0h-1v1q-34 29 -34 74q0 38 25.5 66t64.5 33v47h30v-47q39 -5 64.5 -33t25.5 -66l-15 -2l-15 2q0 25 -17 44.5t-43 24.5v-172l50 -38
q1 0 1 -0.5t1 -0.5v0zM205 282l36 -27v148q-26 -5 -43 -24.5t-17 -44.5q0 -31 24 -52zM271 45q26 5 43 24.5t17 44.5q0 32 -27 54l-33 25v-148z" />
    <glyph glyph-name="uE68D" unicode="&#xe68d;" 
d="M256 119q-56 0 -96 39.5t-40 95.5v90q0 52 35 90.5t86 43.5v2h30v-2q51 -5 86 -43.5t35 -90.5v-90q0 -56 -40 -95.5t-96 -39.5zM181 418q-30 -30 -30 -74v-15h210v15q0 44 -30 74v-58h-30v79q-13 7 -30 9v-88h-30v88q-17 -2 -30 -9v-79h-30v58zM151 299v-45
q0 -44 30.5 -74.5t74.5 -30.5t74.5 30.5t30.5 74.5v45h-210zM452 269h-30v-98q0 -34 -31.5 -58.5t-74.5 -24.5h-120q-43 0 -74.5 24.5t-31.5 58.5v98h-30v-98q0 -47 40 -80t96 -33h45v-90h30v90h45q56 0 96 33t40 80v98z" />
    <glyph glyph-name="uE68E" unicode="&#xe68e;" 
d="M482 390h-452v-61h452v61zM30 179v60h452v-60h-452zM30 28v60h452v-60h-452z" />
    <glyph glyph-name="uE68F" unicode="&#xe68f;" 
d="M482 420h-331v-60h331v60zM151 209v60h331v-60h-331zM151 58v61h331v-61h-331zM60 420q13 0 21.5 -9t8.5 -21q0 -13 -8.5 -21.5t-21.5 -8.5q-12 0 -21 8.5t-9 21.5q0 12 9 21t21 9zM60 269q13 0 21.5 -8.5t8.5 -21.5t-8.5 -21.5t-21.5 -8.5q-12 0 -21 8.5t-9 21.5t9 21.5
t21 8.5zM60 119q13 0 21.5 -9t8.5 -22q0 -12 -8.5 -21t-21.5 -9q-12 0 -21 9t-9 21q0 13 9 22t21 9z" />
    <glyph glyph-name="uE690" unicode="&#xe690;" 
d="M316 346l166 49v-333l-164 -48l-157 44h-161v332l169 -1zM181 354v-270l120 -34v269zM30 360v-272h121v272h-121zM452 85v270l-121 -36v-270z" />
    <glyph glyph-name="uE691" unicode="&#xe691;" 
d="M452 360h30v-328l-164 -48l-157 44h-161v332h181v-1l31 -7q3 41 33 69.5t71 28.5q42 0 72 -28t33 -69l30 6l1 -2v3zM316 420q-31 0 -53 -22.5t-22 -53.5q0 -58 75 -156q76 95 76 156q0 32 -22 54t-54 22zM181 328v-274l120 -34v138q-75 95 -88 163zM30 329v-271h121v271
h-121zM331 19l121 36v273l-33 -7q-13 -74 -88 -163v-139zM357 342q0 -17 -12 -29t-29 -12t-29 12t-12 29t12 29t29 12t29 -12t12 -29zM305 342q0 -11 11 -11t11 11t-11 11t-11 -11z" />
    <glyph glyph-name="uE692" unicode="&#xe692;" 
d="M30 209q0 49 34 84.5t81 35.5h127l-49 -49l21 -21l86 85l-86 86l-21 -21l49 -49h-127q-60 0 -102.5 -44.5t-42.5 -106.5t42.5 -106.5t102.5 -44.5v30q-47 0 -81 35.5t-34 85.5zM367 360q60 0 102.5 -44.5t42.5 -106.5t-42.5 -106.5t-102.5 -44.5h-127l49 -49l-21 -22
l-86 86l86 86l21 -21l-49 -50h127q47 0 81 35.5t34 85.5q0 49 -34 84.5t-81 35.5v31z" />
    <glyph glyph-name="uE693" unicode="&#xe693;" 
d="M256 465q68 0 117 -48.5t49 -117.5q0 -45 -22 -100.5t-54.5 -103.5t-50 -71t-28.5 -36l-11 -13l-11 13q-11 13 -28.5 36t-50 71t-54.5 103.5t-22 100.5q0 69 49 117.5t117 48.5zM256 22q26 32 52 69.5t55 100t29 107.5q0 56 -40 96t-96 40t-96 -40t-40 -96
q0 -45 29 -107.5t55 -100t52 -69.5zM256 385q38 0 64 -26.5t26 -63.5t-26 -63.5t-64 -26.5t-64 26.5t-26 63.5t26 63.5t64 26.5zM256 235q25 0 42.5 17.5t17.5 42.5t-17.5 42.5t-42.5 17.5t-42.5 -17.5t-17.5 -42.5t17.5 -42.5t42.5 -17.5z" />
    <glyph glyph-name="uE694" unicode="&#xe694;" 
d="M512 360h-361v-31h361v31zM90 344q0 19 -13 32.5t-32 13.5t-32 -13.5t-13 -32.5q0 -18 13 -31.5t32 -13.5t32 13.5t13 31.5zM60 344q0 -6 -4.5 -10.5t-10.5 -4.5t-10.5 4.5t-4.5 10.5q0 7 4.5 11.5t10.5 4.5t10.5 -4.5t4.5 -11.5zM151 209v30h361v-30h-361zM90 224
q0 19 -13 32t-32 13t-32 -13t-13 -32t13 -32t32 -13t32 13t13 32zM60 224q0 -6 -4.5 -10.5t-10.5 -4.5t-10.5 4.5t-4.5 10.5t4.5 10.5t10.5 4.5t10.5 -4.5t4.5 -10.5zM151 88v31h361v-31h-361zM90 104q0 18 -13 31.5t-32 13.5t-32 -13.5t-13 -31.5q0 -19 13 -32.5t32 -13.5
t32 13.5t13 32.5zM60 104q0 -7 -4.5 -11.5t-10.5 -4.5t-10.5 4.5t-4.5 11.5q0 6 4.5 10.5t10.5 4.5t10.5 -4.5t4.5 -10.5z" />
    <glyph glyph-name="uE695" unicode="&#xe695;" 
d="M256 480q68 0 117 -51.5t49 -124.5q0 -34 -10 -64.5t-18.5 -44t-26.5 -37.5q-14 -19 -19 -26.5t-11 -22.5t-6 -30v-64q0 -20 -13 -33.5t-32 -13.5h-60q-19 0 -32 13.5t-13 33.5v63q0 32 -36 81q-18 24 -27 38.5t-18.5 44t-9.5 62.5q0 73 49 124.5t117 51.5zM286 -2
q6 0 10.5 5t4.5 12v49h-90v-49q0 -7 4.5 -12t10.5 -5h60zM342 176q16 21 25 34.5t17 39t8 54.5q0 61 -40 103.5t-96 42.5t-96 -42.5t-40 -103.5q0 -28 8 -53.5t16.5 -39t24.5 -34.5q36 -48 41 -83h92q5 32 40 82z" />
    <glyph glyph-name="uE696" unicode="&#xe696;" 
d="M358 419h34v30h-91v-30h24l-171 -391h-34v-30h91v30h-24z" />
    <glyph glyph-name="uE697" unicode="&#xe697;" 
d="M325 50h-54v254h-83v-30h53v-224h-54v-30h138v30zM241 358q-19 0 -33 13.5t-14 32.5q0 20 14 33.5t33 13.5t32.5 -14t13.5 -33t-13.5 -32.5t-32.5 -13.5z" />
    <glyph glyph-name="uE698" unicode="&#xe698;" 
d="M512 239q0 50 -35.5 85.5t-84.5 35.5q-55 0 -91 -41l-28 -36l23 -19l29 36q26 29 67 29q37 0 63.5 -26.5t26.5 -63.5t-26.5 -63.5t-63.5 -26.5q-43 0 -70 33l-111 137l-2 2v-1q-37 40 -89 40q-49 0 -84.5 -35.5t-35.5 -85.5q0 -49 35 -84.5t85 -35.5q58 0 94 44h1l24 31
l-23 19l-25 -31v1q-26 -34 -71 -34q-37 0 -63.5 26.5t-26.5 63.5t26.5 63.5t63.5 26.5q41 0 68 -30l109 -135l1 -1l1 -1q37 -43 93 -43q50 0 85 35.5t35 84.5z" />
    <glyph glyph-name="uE699" unicode="&#xe699;" 
d="M0 390h512v-362h-512v362zM482 58v302h-452v-302h452zM77 73q1 23 25.5 41t61.5 23l13 1v51l-7 5q-8 5 -13 24v7l-4 1l-2 17q-1 5 -1 13v6q0 16 1 17t4 1q12 1 19 15q3 4 11 4q28 0 35 -12l-1 -1q-6 -17 -4 -31v-8l-3 -19l-4 -11q-5 -16 -12 -23l-6 -4v-52l13 -1
q37 -4 60.5 -22.5t24.5 -41.5l30 1q-1 32 -28 57t-70 33v12q6 7 15 25q9 7 13 18q6 18 -3 30v9q-1 9 3 17q3 15 1 20q-12 36 -66 34q-24 0 -35 -19q-28 -5 -28 -48v-6v-6q-10 -13 -2 -32q4 -10 12 -16q9 -20 17 -28v-9q-44 -8 -71.5 -33.5t-28.5 -57.5zM452 239v30h-151v-30
h151zM422 179v30h-121v-30h121z" />
    <glyph glyph-name="uE69A" unicode="&#xe69a;" 
d="M271 360v-113h34v-279h-98v279h34v113h-121v120h212l108 -120h-169zM151 450v-60h222l-55 60h-167zM275 -2v219h-38v-219h38z" />
    <glyph glyph-name="uE69B" unicode="&#xe69b;" 
d="M422 -2v271h30v-301h-392v301h30v-271h91v181h150v-181h91zM211 -2h90v151h-90v-151zM506 285l-250 184l-250 -184l18 -24l232 170l232 -170z" />
    <glyph glyph-name="uE69C" unicode="&#xe69c;" 
d="M311 33q0 20 -14.5 34.5t-35.5 14.5q-20 0 -34.5 -14.5t-14.5 -34.5t14.5 -34.5t34.5 -14.5q21 0 35.5 14.5t14.5 34.5zM351 409q33 -42 25 -81q-11 -48 -63 -93q-17 -16 -24.5 -24.5t-15 -24.5t-7.5 -36h-30q0 26 9.5 47.5t19 32t28.5 27.5q45 41 54 78q5 25 -19 55
q-24 31 -66 31q-27 0 -46.5 -9t-29 -20t-15 -25t-6.5 -20.5t-1 -10.5l-30 1q0 4 1 12.5t8.5 27.5t19.5 34.5t38 27.5t61 12q56 0 89 -42z" />
    <glyph glyph-name="uE69D" unicode="&#xe69d;" 
d="M481 236q31 -10 31 -42v-121q0 -18 -13 -31.5t-32 -13.5h-45v30h-30v151h30v30h29q-5 89 -61 150t-134 61t-134 -61t-61 -150h29v-30h30v-151h-30v-30h-45q-19 0 -32 13.5t-13 31.5v121q0 32 31 42q4 102 69 173t156 71t156 -71t69 -173zM60 58v151h-15q-6 0 -10.5 -4.5
t-4.5 -10.5v-121q0 -6 4.5 -10.5t10.5 -4.5h15zM482 73v121q0 6 -4.5 10.5t-10.5 4.5h-15v-151h15q6 0 10.5 4.5t4.5 10.5z" />
    <glyph glyph-name="uE69E" unicode="&#xe69e;" 
d="M407 104q18 0 31.5 -13.5t13.5 -32.5t-13.5 -32t-31.5 -13q-19 0 -32.5 13t-13.5 32t13.5 32.5t32.5 13.5zM407 43q6 0 10.5 4.5t4.5 10.5q0 15 -15 15t-15 -15t15 -15zM512 385v-192h-32l32 -36v-189h-512v190l28 35h-28v194l88 93h336zM101 450l-57 -60h423l-56 60
h-310zM30 -2h452v121h-452v-121zM479 149l-38 44h-374l-36 -44h448zM30 223h452v137h-452v-137zM407 329q18 0 31.5 -13t13.5 -32t-13.5 -32t-31.5 -13q-19 0 -32.5 13t-13.5 32t13.5 32t32.5 13zM407 269q6 0 10.5 4.5t4.5 10.5q0 15 -15 15t-15 -15t15 -15z" />
    <glyph glyph-name="uE69F" unicode="&#xe69f;" 
d="M426 390l86 -134v-198h-512v200l86 132h340zM103 360l-60 -91h425l-59 91h-306zM30 88h452v151h-452v-151zM407 209q18 0 31.5 -13t13.5 -32t-13.5 -32.5t-31.5 -13.5q-19 0 -32.5 13.5t-13.5 32.5t13.5 32t32.5 13zM407 149q15 0 15 15q0 6 -4.5 10.5t-10.5 4.5
q-15 0 -15 -15t15 -15z" />
    <glyph glyph-name="uE6A0" unicode="&#xe6a0;" 
d="M236 311q-93 17 -138 54q-23 20 -23 48q0 30 23 48q22 19 53 19t53 -19q32 -27 51 -78q22 54 52 79q21 18 52.5 18t52.5 -18q23 -20 23 -49q0 -28 -23 -48q-43 -36 -137 -54v-6l-19 3h-1l-20 -3zM326 439q-33 -29 -53 -98q83 16 120 47q12 10 12 25t-12 26q-14 11 -33 11
q-20 0 -34 -11zM118 439q-13 -11 -13 -26q0 -14 13 -25q36 -30 119 -46q-18 68 -53 97q-14 11 -33 11t-33 -11zM512 299v-120h-30v-211h-452v211h-30v120h512zM210 269l34 -191l39 36l50 -21l-32 176h-91zM30 269v-60h160l-10 60h-150zM452 -2v181h-104l24 -135l-83 35
l-65 -61l-29 161h-135v-181h392zM482 209v60h-151l11 -60h140z" />
    <glyph glyph-name="uE6A1" unicode="&#xe6a1;" 
d="M271 360q84 -2 162.5 -25.5t78.5 -49.5v-212q0 -19 -13 -32t-32 -13h-56l-57 118q-48 -8 -99 -8t-96 8l-60 -118h-54q-19 0 -32 13t-13 32v212q0 26 78.5 49.5t162.5 25.5v90h30v-90zM482 73v208q-15 13 -76.5 30t-134.5 19v-1h-30v1q-73 -2 -134.5 -19t-76.5 -30v-208
q0 -6 4.5 -10.5t10.5 -4.5h36l62 123l11 -3h2q3 -1 8 -2t11.5 -2t15.5 -2t18.5 -2t21.5 -1.5t24 -0.5q26 0 52 2.5t39 5.5l13 2l12 2l59 -122h37q6 0 10.5 4.5t4.5 10.5zM151 269v30h-31v-30h-30v-31h30v-30h31v30h30v31h-30zM376 208q-18 0 -31.5 13.5t-13.5 32.5
q0 18 13.5 31.5t31.5 13.5q19 0 32.5 -13.5t13.5 -31.5q0 -19 -13.5 -32.5t-32.5 -13.5zM376 269q-6 0 -10.5 -4.5t-4.5 -10.5q0 -7 4.5 -11.5t10.5 -4.5q16 0 16 16q0 6 -4.5 10.5t-11.5 4.5z" />
    <glyph glyph-name="uE6A2" unicode="&#xe6a2;" 
d="M16 480h480l-195 -278v-234h-90v234zM271 212l167 238h-364l167 -238v-214h30v214z" />
    <glyph glyph-name="uE6A3" unicode="&#xe6a3;" 
d="M376 480l136 -126v-296h-151v30h121v241h-121v121h-150v-31h-30v61h195zM392 425v-65h70zM0 390h196l135 -126v-296h-331v422zM211 334v-65h70zM30 -2h271v241h-120v121h-151v-362z" />
    <glyph glyph-name="uE6A4" unicode="&#xe6a4;" 
d="M291 480l161 -160v-352h-392v512h231zM301 428v-99h99zM90 -2h332v301h-151v151h-181v-452z" />
    <glyph glyph-name="uE6A5" unicode="&#xe6a5;" 
d="M405 353q16 -9 21 -27t-4 -34l-172 -294h-132l-95 55q-16 9 -21 27t4 34l181 313q9 16 27.5 21t33.5 -4zM232 28l64 110l-181 105l-83 -144q-8 -13 6 -20l88 -51h106zM395 307q9 12 -5 20l-157 91q-4 2 -7 2q-8 0 -13 -8l-83 -143l182 -105zM512 28h-211v-30h211v30z" />
    <glyph glyph-name="uE6A6" unicode="&#xe6a6;" 
d="M60 480h392v-512h-392v512zM141 360h230l42 90h-314zM122 329l-32 68v-373l30 34h121v271h-119zM134 28l-26 -30h296l-26 30h-244zM392 58l30 -34v374l-32 -69h-119v-271h121z" />
    <glyph glyph-name="uE6A7" unicode="&#xe6a7;" 
d="M512 -2h-512v-30h512v30zM402 213l-146 -146l-146 146l21 22l110 -110v355h30v-355l110 110z" />
    <glyph glyph-name="uE6A8" unicode="&#xe6a8;" 
d="M501 317l-84 -108h-146v-241h-30v241h-211v211h211v60h30v-60h146zM271 239h131l61 78l-61 73h-342v-151h211z" />
    <glyph glyph-name="uE6A9" unicode="&#xe6a9;" 
d="M271 299v-60h181v-151h-181v-120h-30v120h-141l-59 78l59 73h141v60h-181v151h181v30h30v-30h141l59 -74l-59 -77h-141zM90 420v-91h307l36 47l-35 44h-308zM422 119v90h-308l-35 -44l36 -46h307z" />
    <glyph glyph-name="uE6AA" unicode="&#xe6aa;" 
d="M512 134q0 106 -75 181t-181 75t-181 -75t-75 -181v-15h186v30h-155q4 76 55 133l24 -24l21 21l-23 24q56 50 133 56v-90h30v90q76 -6 134 -56l-25 -24l22 -21l24 24q51 -57 55 -133h-155v-30h186v15zM316 134q0 25 -17.5 42.5t-42.5 17.5q-2 0 -5 -0.5t-4 -0.5l-64 112
l-26 -15l62 -109q-23 -18 -23 -47q0 -25 17.5 -43t42.5 -18t42.5 18t17.5 43zM286 134q0 -13 -8.5 -21.5t-21.5 -8.5t-21.5 8.5t-8.5 21.5q0 12 8.5 21t21.5 9t21.5 -9t8.5 -21z" />
    <glyph glyph-name="uE6AB" unicode="&#xe6ab;" 
d="M90 390h332v-332h-332v332zM392 88v272h-272v-272h272z" />
    <glyph glyph-name="uE6AC" unicode="&#xe6ac;" 
d="M269 273l24 -19l32 41q31 34 78 34h58l-50 -49l21 -21l86 85l-86 86l-21 -21l50 -49h-58q-61 0 -101 -46v-1zM176 158l28 35l24 -19l-29 -35q-41 -51 -105 -51h-94v31h94q51 0 82 39zM411 168l21 22l86 -86l-86 -86l-21 21l50 49h-58q-65 0 -106 51l1 1l-126 154
q-30 35 -78 35h-94v31h94q59 0 99 -45l1 1l128 -159q32 -38 81 -38h58z" />
    <glyph glyph-name="uE6AD" unicode="&#xe6ad;" 
d="M90 399l350 -174l-350 -176v350zM120 350v-252l253 127z" />
    <glyph glyph-name="uE6AE" unicode="&#xe6ae;" 
d="M90 28v392h121v-392h-121zM120 390v-332h61v332h-61zM301 420h121v-392h-121v392zM392 58v332h-61v-332h61z" />
    <glyph glyph-name="uE6AF" unicode="&#xe6af;" 
d="M90 407l220 -182l-220 -184v366zM120 343v-237l143 119zM460 225l-194 161l-20 -23l167 -138l-167 -140l20 -23z" />
    <glyph glyph-name="uE6B0" unicode="&#xe6b0;" 
d="M202 225l220 182v-366zM392 106v237l-143 -118zM99 225l167 138l-20 23l-194 -161l194 -163l20 23z" />
    <glyph glyph-name="uE6B1" unicode="&#xe6b1;" 
d="M384 344q53 0 90.5 -37.5t37.5 -90.5t-37.5 -90.5t-90.5 -37.5h-286q-40 0 -69 29t-29 69q0 41 30 70.5t71 27.5q16 41 52 66t80 25q58 0 100 -42q22 11 51 11zM384 119q41 0 69.5 28.5t28.5 68.5t-29 69t-69 29q-24 0 -47 -12l-11 -6l-8 9q-33 39 -85 39
q-38 0 -67.5 -22t-39.5 -58l-4 -13l-13 2q-4 1 -11 1q-28 0 -48 -20t-20 -48t20 -47.5t48 -19.5h286z" />
    <glyph glyph-name="uE6B2" unicode="&#xe6b2;" 
d="M512 277q0 53 -37.5 90.5t-90.5 37.5q-24 0 -51 -11q-43 41 -100 41q-44 0 -80 -25t-52 -66q-41 2 -71 -27t-30 -70t29 -69.5t69 -28.5h111v30h-111q-28 0 -48 20t-20 48t20 47.5t48 19.5q7 0 11 -1l13 -2l4 13q11 36 40.5 58.5t66.5 22.5q51 0 85 -40l8 -9l11 6
q24 13 47 13q40 0 69 -28.5t29 -69.5t-29 -69.5t-69 -28.5h-83v-30h83q53 0 90.5 37.5t37.5 90.5zM321 213l-50 50v-235h-30v235l-50 -50l-21 22l86 86l86 -86z" />
    <glyph glyph-name="uE6B3" unicode="&#xe6b3;" 
d="M512 277q0 53 -37.5 90.5t-90.5 37.5q-24 0 -51 -11q-43 41 -100 41q-44 0 -80 -25t-52 -66q-41 2 -71 -27t-30 -70t29 -69.5t69 -28.5h111v30h-111q-28 0 -48 20t-20 48t20 47.5t48 19.5q7 0 11 -1l13 -2l4 13q11 36 40.5 58.5t66.5 22.5q51 0 85 -40l8 -9l11 6
q24 13 47 13q40 0 69 -28.5t29 -69.5t-29 -69.5t-69 -28.5h-83v-30h83q53 0 90.5 37.5t37.5 90.5zM271 66l50 50l21 -21l-86 -86l-86 86l21 21l50 -50v233h30v-233z" />
    <glyph glyph-name="uE6B4" unicode="&#xe6b4;" 
d="M482 420h-69v-30h39v-392h-392v392h38v30h-68v-452h452v452zM392 329v121h-93q-12 30 -43 30t-43 -30h-93v-121h272zM361 420v-60h-210v60h90v15q0 6 4.5 10.5t10.5 4.5t10.5 -4.5t4.5 -10.5v-15h90z" />
    <glyph glyph-name="uE6B5" unicode="&#xe6b5;" 
d="M512 179v-150h-60v-1q0 -25 -17.5 -42.5t-42.5 -17.5t-43 17.5t-18 42.5v1h-150v-1q0 -25 -18 -42.5t-43 -17.5t-42.5 17.5t-17.5 42.5v1h-60v150h62l90 120h239l62 -120h59zM419 179l-46 90h-71v-90h117zM167 269l-67 -90h172v90h-105zM120 -2q13 0 22 9t9 21
q0 13 -9 21.5t-22 8.5q-12 0 -21 -8.5t-9 -21.5q0 -12 9 -21t21 -9zM392 -2q12 0 21 9t9 21q0 13 -9 21.5t-21 8.5q-13 0 -22 -8.5t-9 -21.5q0 -12 9 -21t22 -9zM482 59v90h-452v-90h39q18 29 51 29q34 0 52 -29h168q18 29 52 29q33 0 51 -29h39z" />
    <glyph glyph-name="uE6B6" unicode="&#xe6b6;" 
d="M422 420h90v-452h-512v452h90v30h91v-30h150v30h91v-30zM361 420v-60h31v60h-31zM120 420v-60h31v60h-31zM482 -2v269h-452v-269h452zM30 297h452v93h-60v-61h-91v61h-150v-61h-91v61h-60v-93z" />
    <glyph glyph-name="uE6B7" unicode="&#xe6b7;" 
d="M500 445l12 -2v-418l-18 3q-37 7 -84 7q-68 0 -116 -19v-25h-76v25q-57 21 -119 21q-20 0 -40 -2.5t-30 -4.5l-10 -2l-19 -5v419l11 3l5 1q4 1 12 2.5t18.5 3t24.5 2.5t28 1q87 0 157 -35q58 33 154 33q74 0 90 -8zM30 61q32 6 69 6q78 0 142 -29v355q-61 31 -142 31
q-41 0 -69 -6v-357zM482 60v358q-38 5 -72 5q-85 0 -139 -29v-355q57 26 139 26q32 0 72 -5z" />
    <glyph glyph-name="uE6B8" unicode="&#xe6b8;" 
d="M461 55l27 -26h-463l26 25l4 5q4 5 9.5 13.5t11.5 20t10 27t4 31.5v99q0 70 49 120t117 50t117 -50t49 -120v-99q0 -25 10 -49t20 -36zM92 59h328q-28 40 -28 92v99q0 58 -40 99t-96 41t-96 -41t-40 -99v-99q0 -47 -28 -92zM271 420v30h-30v-30h30zM271 28
q0 -6 -4.5 -10.5t-10.5 -4.5t-10.5 4.5t-4.5 10.5h-30q0 -19 13 -32t32 -13t32 13t13 32h-30z" />
    <glyph glyph-name="uE6B9" unicode="&#xe6b9;" 
d="M256 480q106 0 181 -75t75 -181t-75 -181t-181 -75t-181 75t-75 181t75 181t181 75zM391 239h91q-4 67 -46 121q-40 -54 -45 -121zM482 209h-91q5 -67 45 -121q42 54 46 121zM416 383q-58 60 -145 66v-210h90q5 81 55 144zM241 449q-86 -6 -144 -66q51 -65 55 -144h89
v210zM31 239h91q-5 67 -45 121q-42 -54 -46 -121zM122 209h-91q4 -67 46 -121q40 54 45 121zM97 65q58 -60 144 -66v210h-89q-5 -81 -55 -144zM271 -1q87 6 145 66q-50 63 -55 144h-90v-210z" />
    <glyph glyph-name="uE6BA" unicode="&#xe6ba;" 
d="M512 -2h-512v-30h512v30zM60 179v-151h-30v181h121v-181h-31v151h-60zM211 269v-241h-30v271h120v-271h-30v241h-60zM361 390v-362h-30v392h121v-392h-30v362h-61z" />
    <glyph glyph-name="uE6BB" unicode="&#xe6bb;" 
d="M512 -2h-512v-30h512v30zM361 179v-151h-30v181h121v-181h-30v151h-61zM211 269v-241h-30v271h120v-271h-30v241h-60zM60 390v-362h-30v392h121v-392h-31v362h-60z" />
    <glyph glyph-name="uE6BC" unicode="&#xe6bc;" 
d="M439 28h-213q-56 0 -96 40t-40 96t40 95.5t96 39.5h88l-80 -79l21 -22l116 116l-116 116l-21 -21l80 -80h-88q-68 0 -117 -48.5t-49 -116.5q0 -69 49 -117.5t117 -48.5h213v30z" />
    <glyph glyph-name="uE6BD" unicode="&#xe6bd;" 
d="M452 254q0 68 -49 117t-117 49h-213v-30h213q56 0 96 -40t40 -96t-40 -95.5t-96 -39.5h-88l80 79l-21 22l-116 -116l116 -117l21 22l-80 79h88q68 0 117 49t49 117z" />
    <glyph glyph-name="uE6BE" unicode="&#xe6be;" 
d="M452 194h-30v-114l-310 310h114v30h-166v-166h30v115l311 -311h-115v-30h166v166z" />
    <glyph glyph-name="uE6BF" unicode="&#xe6bf;" 
d="M512 420v-121h-30v-331h-452v331h-30v121h512zM452 -2v301h-392v-301h392zM482 329v61h-452v-61h452zM181 149q-25 0 -43 17.5t-18 42.5t18 42.5t43 17.5h151q25 0 42.5 -17.5t17.5 -42.5t-17.5 -42.5t-42.5 -17.5h-151zM181 239q-13 0 -21.5 -8.5t-8.5 -21.5t8.5 -21.5
t21.5 -8.5h151q12 0 21 8.5t9 21.5t-9 21.5t-21 8.5h-151z" />
    <glyph glyph-name="uE6C0" unicode="&#xe6c0;" 
d="M461 101l-27 -14l-20 39q-16 -51 -59.5 -84t-98.5 -33t-98.5 33t-59.5 84l-20 -39l-27 14l47 94l95 -47l-14 -27l-56 28q8 -43 41 -73t77 -35v228h-45v30h45v32q-26 5 -43 26t-17 48q0 31 22 53t53 22t53 -22t22 -53q0 -27 -17 -48t-43 -26v-32h45v-30h-45v-228
q44 5 77 35t41 73l-56 -28l-14 27l94 47zM211 405q0 -19 13 -32t32 -13t32 13t13 32t-13 32t-32 13t-32 -13t-13 -32z" />
    <glyph glyph-name="uE6C1" unicode="&#xe6c1;" 
d="M512 420h-512v-30h512v30zM90 269v30h422v-30h-422zM0 149v30h512v-30h-512zM211 28v30h301v-30h-301z" />
    <glyph glyph-name="uE6C2" unicode="&#xe6c2;" 
d="M512 420h-512v-30h512v30zM422 299v-30h-422v30h422zM0 149v30h512v-30h-512zM0 28v30h301v-30h-301z" />
    <glyph glyph-name="uE6C3" unicode="&#xe6c3;" 
d="M512 420h-512v-30h512v30zM0 269v30h512v-30h-512zM0 149v30h512v-30h-512zM0 28v30h512v-30h-512z" />
    <glyph glyph-name="uE6C4" unicode="&#xe6c4;" 
d="M512 420h-512v-30h512v30zM45 299h422v-30h-422v30zM0 149v30h512v-30h-512zM105 28v30h302v-30h-302z" />
    <glyph glyph-name="uE6C5" unicode="&#xe6c5;" 
d="M255 435l251 -437h-500zM255 374l-197 -346h396zM271 151v118h-30v-118h30zM286 88q0 12 -8.5 21t-21.5 9t-21.5 -9t-8.5 -21q0 -13 8.5 -22t21.5 -9t21.5 9t8.5 22z" />
    <glyph glyph-name="uE6C6" unicode="&#xe6c6;" 
d="M443 275q24 -46 24 -96q0 -76 -49 -135l38 -52l-24 -18l-36 48q-61 -54 -140 -54t-140 54l-36 -48l-24 18l38 52q-49 59 -49 135q0 50 24 96q-24 26 -24 58q0 34 24 58t58 24q42 0 67 -35q22 7 47 9v31h-30v30h90v-30h-30v-31q25 -2 47 -9q25 35 67 35q34 0 58 -24
t24 -58q0 -32 -24 -58zM385 385q-23 0 -38 -17q47 -22 80 -66q10 15 10 31q0 21 -15.5 36.5t-36.5 15.5zM75 333q0 -16 10 -31q32 43 80 67q-16 16 -38 16q-21 0 -36.5 -15.5t-15.5 -36.5zM256 -2q75 0 128 53t53 128q0 74 -53 127.5t-128 53.5t-128 -53.5t-53 -127.5
q0 -75 53 -128t128 -53zM271 179v90h-30v-120h151v30h-121z" />
    <glyph glyph-name="uE6C7" unicode="&#xe6c7;" 
d="M422 420h60v-392h-60v-60h-392v512h392v-60zM60 -2h60v452h-60v-452zM392 -2v452h-241v-452h241zM452 58v91h-30v-91h30zM452 179v90h-30v-90h30zM422 299h30v91h-30v-91zM181 360v-31h150v31h-150zM181 299v-30h120v30h-120z" />
    <glyph glyph-name="uE6C8" unicode="&#xe6c8;" 
d="M351 480l161 -160v-352h-376v30h346v301h-151v151h-210v-30h14q19 0 32 -13t13 -32v-258l-74 -150l-76 149v259q0 19 13 32t32 13h16v60h260zM118 58l32 66v176h-30v-182h-30v182h-30v-176l33 -66h25zM150 375q0 6 -4.5 10.5t-10.5 4.5h-60q-6 0 -10.5 -4.5t-4.5 -10.5
v-45h90v45zM361 428v-99h99z" />
    <glyph glyph-name="uE6C9" unicode="&#xe6c9;" 
d="M0 450h512v-452h-512v452zM482 420h-452v-91h452v91zM30 28h452v271h-452v-271zM211 360v30h-30v-30h30zM151 360v30h-31v-30h31zM90 360v30h-30v-30h30z" />
    <glyph glyph-name="uE6CA" unicode="&#xe6ca;" 
d="M60 480v-30h30v30h-30zM120 450v30h31v-30h-31zM181 450v30h30v-30h-30zM241 450v30h30v-30h-30zM301 450v30h30v-30h-30zM361 450v30h31v-30h-31zM422 450v30h30v-30h-30zM60 209v30h30v-30h-30zM120 209v30h31v-30h-31zM181 209v30h30v-30h-30zM301 209v30h30v-30h-30z
M361 209v30h31v-30h-31zM422 209v30h30v-30h-30zM60 -32v30h30v-30h-30zM120 -32v30h31v-30h-31zM181 -32v30h30v-30h-30zM241 -32v30h30v-30h-30zM301 -32v30h30v-30h-30zM361 -32v30h31v-30h-31zM422 -32v30h30v-30h-30zM482 480h30v-30h-30v30zM482 390v30h30v-30h-30z
M482 329v31h30v-31h-30zM482 269v30h30v-30h-30zM482 209v30h30v-30h-30zM482 149v30h30v-30h-30zM482 88v31h30v-31h-30zM482 28v30h30v-30h-30zM241 390v30h30v-30h-30zM241 329v31h30v-31h-30zM241 269v30h30v-30h-30zM241 209v30h30v-30h-30zM241 149v30h30v-30h-30z
M241 88v31h30v-31h-30zM241 28v30h30v-30h-30zM482 -32v30h30v-30h-30zM0 450v30h30v-30h-30zM0 390v30h30v-30h-30zM0 329v31h30v-31h-30zM0 269v30h30v-30h-30zM0 209v30h30v-30h-30zM0 149v30h30v-30h-30zM0 88v31h30v-31h-30zM0 28v30h30v-30h-30zM0 -32v30h30v-30h-30z
" />
    <glyph glyph-name="uE6CB" unicode="&#xe6cb;" 
d="M60 480v-30h30v30h-30zM151 480v-30h-31v30h31zM211 480v-30h-30v30h30zM271 480v-30h-30v30h30zM331 480v-30h-30v30h30zM392 480v-30h-31v30h31zM422 450v30h30v-30h-30zM60 -32v30h30v-30h-30zM120 -32v30h31v-30h-31zM181 -32v30h30v-30h-30zM241 -32v30h30v-30h-30z
M301 -32v30h30v-30h-30zM361 -32v30h31v-30h-31zM422 -32v30h30v-30h-30zM482 480h30v-30h-30v30zM482 390v30h30v-30h-30zM482 329v31h30v-31h-30zM482 269v30h30v-30h-30zM482 209v30h30v-30h-30zM482 149v30h30v-30h-30zM482 88v31h30v-31h-30zM482 28v30h30v-30h-30z
M482 -32v30h30v-30h-30zM0 450v30h30v-30h-30zM0 390v30h30v-30h-30zM0 329v31h30v-31h-30zM0 269v30h30v-30h-30zM0 209v30h30v-30h-30zM0 149v30h30v-30h-30zM0 88v31h30v-31h-30zM0 28v30h30v-30h-30zM0 -32v30h30v-30h-30zM406 241l-2 10l-43 13q-1 1 -1 3t-1 3l21 40
l-6 8q-10 14 -24 24l-8 6l-40 -21q-1 1 -3 1t-3 1l-13 43l-10 2q-17 2 -34 0l-10 -2l-13 -43q-1 -1 -3 -1t-3 -1l-40 21l-8 -6q-12 -9 -24 -25l-6 -7l21 -40q-1 -1 -1 -3t-1 -3l-43 -13l-2 -10q0 -2 -0.5 -8t-0.5 -9t0.5 -9t0.5 -8l2 -10l43 -13q1 -1 1 -3t1 -3l-21 -40
l6 -7q10 -14 24 -25l8 -6l40 21q1 -1 3 -1t3 -1l13 -43l10 -2q2 0 8 -0.5t9 -0.5t9 0.5t8 0.5l10 2l13 43q1 1 3 1t3 1l40 -21l7 6q12 9 25 25l6 7l-21 40q1 1 1 3t1 3l43 13l2 10q0 2 0.5 8t0.5 9t-0.5 9t-0.5 8zM376 224v-4l-39 -12l-2 -8q-4 -10 -7 -15l-3 -7l19 -36
l-6 -6l-36 19l-7 -4l-15 -6l-8 -2l-12 -39q-4 -1 -8 0l-12 39l-8 2q-10 4 -15 7l-7 3l-36 -19l-6 6l19 36l-3 7q-3 5 -7 15l-2 8l-39 12v4v4l39 12l2 8q4 10 7 15l3 7l-19 36l6 6l36 -19l7 3q5 3 15 7l8 2l12 39q4 1 8 0l12 -39l8 -2q10 -4 15 -7l7 -3l36 19l6 -6l-19 -36
l3 -7q3 -5 7 -15l2 -8l39 -12v-4z" />
    <glyph glyph-name="uE6CC" unicode="&#xe6cc;" 
d="M60 480v-30h30v30h-30zM151 480v-30h-31v30h31zM211 480v-30h-30v30h30zM271 480v-30h-30v30h30zM331 480v-30h-30v30h30zM392 480v-30h-31v30h31zM422 450v30h30v-30h-30zM60 -32v30h30v-30h-30zM120 -32v30h31v-30h-31zM181 -32v30h30v-30h-30zM241 -32v30h30v-30h-30z
M301 -32v30h30v-30h-30zM361 -32v30h31v-30h-31zM422 -32v30h30v-30h-30zM482 480h30v-30h-30v30zM482 390v30h30v-30h-30zM482 329v31h30v-31h-30zM482 269v30h30v-30h-30zM482 209v30h30v-30h-30zM482 149v30h30v-30h-30zM482 88v31h30v-31h-30zM482 28v30h30v-30h-30z
M482 -32v30h30v-30h-30zM0 450v30h30v-30h-30zM0 390v30h30v-30h-30zM0 329v31h30v-31h-30zM0 269v30h30v-30h-30zM0 209v30h30v-30h-30zM0 149v30h30v-30h-30zM0 88v31h30v-31h-30zM0 28v30h30v-30h-30zM0 -32v30h30v-30h-30zM256 178l125 124l21 -21l-146 -146l-146 146
l21 21z" />
    <glyph glyph-name="uE6CD" unicode="&#xe6cd;" 
d="M47 420h465v-372h-59v-50h-406q-20 0 -33.5 13.5t-13.5 32.5v329q0 19 14 33t33 14zM47 28h376v90h-86q-20 0 -33.5 13t-13.5 32v30q0 19 14 32.5t33 13.5h86v91h-376h-1q-4 0 -14 2q-1 0 -2 1v-289q0 -7 5 -11.5t12 -4.5zM337 148h145v61h-145q-17 0 -17 -16v-30
q0 -15 17 -15zM482 78v40h-29v-40h29zM453 239h29v151h-435q-7 0 -11.5 -5t-4.5 -12q0 -13 16 -13h406v-121z" />
    <glyph glyph-name="uE6CE" unicode="&#xe6ce;" 
d="M0 450h512v-452h-512v452zM482 360v60h-79l71 -60h8zM263 269h88l71 60h-88zM205 360h88l-71 60h-88zM288 329h-88l-71 -60h88zM339 360h88l-71 60h-88zM30 420v-60h128l-71 60h-57zM30 329v-60h52l71 60h-123zM482 28v211h-452v-211h452zM482 269v60h-13l-71 -60h84z
" />
    <glyph glyph-name="uE6CF" unicode="&#xe6cf;" 
d="M391 277l121 84v-304l-121 84v-68q0 -18 -13 -31.5t-32 -13.5h-240q-19 0 -32 13.5t-13 31.5v166h-15q-19 0 -32.5 13t-13.5 32v60q0 19 13.5 32.5t32.5 13.5h44v15q0 19 13.5 32t32.5 13h166v-30h-166q-7 0 -11.5 -4.5t-4.5 -10.5v-15h226q19 0 32 -13.5t13 -32.5v-67z
M482 115v188l-121 -84v125q0 7 -4.5 11.5t-10.5 4.5h-300q-16 0 -16 -16v-60q0 -6 4.5 -10.5t11.5 -4.5h45v-196q0 -6 4.5 -10.5t10.5 -4.5h240q6 0 10.5 4.5t4.5 10.5v126z" />
    <glyph glyph-name="uE6D0" unicode="&#xe6d0;" 
d="M450 299h62v-90h-90v72q-40 20 -86.5 17t-83.5 -29q3 -6 3 -15q0 -19 -13 -32t-32 -13q-7 0 -10 1q-19 -34 -19 -76q0 -38 20 -76h70v-90h-90v64q-30 48 -30 102q0 36 12 67l-78 -77q5 -10 5 -20q0 -19 -13 -32.5t-32 -13.5t-32 13.5t-13 32.5q0 18 13 31.5t32 13.5
q7 0 19 -4l102 102q-1 2 -1 7q0 19 13 32t32 13h8l117 117q-4 12 -4 19q0 19 13.5 32t31.5 13q19 0 32.5 -13t13.5 -32t-13.5 -32t-32.5 -13q-10 0 -20 5l-77 -78q31 12 67 12q58 0 104 -30zM376 450q-6 0 -10.5 -4.5t-4.5 -10.5t4.5 -10.5t10.5 -4.5q7 0 11.5 4.5t4.5 10.5
t-4.5 10.5t-11.5 4.5zM45 88q6 0 10.5 4.5t4.5 11.5q0 6 -4.5 10.5t-10.5 4.5t-10.5 -4.5t-4.5 -10.5q0 -7 4.5 -11.5t10.5 -4.5zM211 28v-30h30v30h-30zM210 239q6 0 10.5 4.5t4.5 10.5t-4.5 10.5t-10.5 4.5t-10.5 -4.5t-4.5 -10.5t4.5 -10.5t10.5 -4.5zM482 239v30h-30
v-30h30z" />
    <glyph glyph-name="uE6D1" unicode="&#xe6d1;" 
d="M79 275q10 0 20 -2q3 5 3 10q0 16 -19 16q-8 0 -33 -5q-2 0 -14.5 -2t-16.5 -2q-14 0 -15 7q-5 -8 -4 -14q2 -13 24 -13h7q1 0 3.5 0.5t3.5 0.5h2v-2q-1 -3 -9.5 -23.5t-15 -38t-6.5 -20.5q0 -10 19 -12q35 88 41 99h1q3 1 9 1zM196 191q15 3 33 16q-20 -31 -47 -31
q-21 0 -22 19q-16 -22 -27 -21q-14 0 -14 16q0 7 4 19t8 21l4 9q-10 0 -23 -20.5t-20 -45.5q-7 0 -12.5 5.5t-5.5 12.5q0 8 21 54q1 2 6.5 13.5t9.5 22.5t6 23q9 3 11 3q11 0 11 -11q0 -3 -10.5 -26t-10.5 -26q20 13 31 13q13 0 13 -11q0 -6 -10 -22q-7 -11 -11 -23
q-1 -6 0 -6t3.5 -0.5t7.5 2t9 6.5q4 19 20 38.5t32 19.5q18 0 20 -18q2 -14 -8.5 -26.5t-22 -14.5t-16.5 3q-1 1 1.5 1.5t6 1.5t7.5 3t7.5 7t4.5 13q1 6 -5 6q-7 0 -16.5 -11.5t-9.5 -22.5q0 -14 14 -12zM323 201q-2 -6 4 -6q7 0 11 3q-6 -24 -25 -24q-13 0 -13 13t13 39
l2 3h-3q-7 0 -19.5 -19t-15.5 -33h-4q-12 0 -12 10q0 8 8 24q3 5 7 15l1 2h-2q-8 0 -18.5 -17t-16.5 -35h-1q-14 0 -14 13q0 3 10 25q15 36 16 45q3 1 7 1q11 0 11 -9l-2 -15q18 21 30 21q9 0 9 -15v-4l2 3q15 17 26 17q8 0 8 -8q0 -11 -13 -33q-6 -12 -6 -16zM377 192
q-6 -18 -20 -18q-7 0 -12 6t-5 13t14 37q8 18 11 26h1h1q14 0 16 -12q0 -2 -1.5 -5t-4.5 -7.5t-5 -8.5q-10 -18 -10 -27q0 -4 5 -6t10 2zM381 266q-12 0 -12 7q0 10 5 15q23 -1 23 -7t-7 -14q-3 -1 -9 -1zM494 263q17 0 18 -10q0 -4 -4 -12q0 -1 -1 -3.5t-2 -3.5
q0 -2 -3 -9.5t-4 -10.5q-20 -63 -52 -66l-1 -1q-13 0 -19 7q-5 4 -7 9t-1 8v3v-1q1 -1 3 -2.5t4.5 -3t6.5 -2t8 -0.5q18 0 30 34l-1 1q-6 -8 -17.5 -14t-16.5 0q-2 2 -4 10q0 8 8 35q3 8 5 15q0 1 -2 3h-1q-5 0 -8 -2q-6 -3 -8 -7q-40 -89 -42 -104q-6 1 -12.5 6.5
t-5.5 11.5q0 7 23 56l13 31q-5 8 -5 9q0 6 5 8h1l9 3v1q6 13 11 22t15 18.5t20 8.5q19 0 21 -16q1 -3 -2 -9q-1 7 -8 7.5t-12 -3.5q-12 -6 -19 -29h12q8 0 12 -1h1l2 -1l3 -3q0 -2 1 -3q0 -3 -7 -22q-7 -16 -6 -18q5 -12 26 23q11 17 12 26v1h1z" />
    <glyph glyph-name="uE6D2" unicode="&#xe6d2;" 
d="M283 441q63 0 112.5 -29.5t75 -74.5t35.5 -95t2 -94q-5 -26 -30.5 -45t-72 -30.5t-86 -17.5t-99.5 -12q-48 -5 -96.5 -14t-72.5 -15l-24 -7q4 3 10.5 8.5t20 20t20.5 27.5t4 28t-21 24q-13 7 -30 31t-25.5 61t-1 75t53 77.5t126.5 64.5q51 17 99 17zM479 153
q7 44 -5.5 97.5t-46.5 94.5q-54 66 -144 66q-42 0 -90 -15q-151 -48 -162 -138q-5 -38 13 -73.5t31 -42.5q35 -18 38 -52q1 -16 -6 -33q55 11 109 16q188 21 238 51q22 13 25 29zM120 284q0 -12 9 -21t22 -9q12 0 21 9t9 21q0 13 -9 21.5t-21 8.5q-13 0 -22 -8.5t-9 -21.5z
M271 299q0 -12 9 -21t21 -9q13 0 21.5 9t8.5 21q0 13 -8.5 21.5t-21.5 8.5q-12 0 -21 -8.5t-9 -21.5zM401 224q-8 -5 -21.5 -12t-52 -22.5t-73 -22.5t-75.5 -1.5t-68 29.5q5 -6 14.5 -15.5t39.5 -26.5t62 -20t79.5 18t94.5 73z" />
    <glyph glyph-name="uE6D3" unicode="&#xe6d3;" 
d="M184 424q94 27 160.5 8.5t105 -67.5t53 -107t5.5 -110q-5 -26 -30.5 -45t-72 -30.5t-86 -17.5t-99.5 -12q-48 -5 -96.5 -14t-72.5 -15l-24 -7q4 3 10.5 8.5t20 20t20.5 27.5t4 28t-21 24q-13 7 -30 31t-25.5 61t-1 75t53 77.5t126.5 64.5zM301 329q-12 0 -21 -8.5
t-9 -21.5q0 -12 9 -21t21 -9q13 0 21.5 9t8.5 21q0 13 -8.5 21.5t-21.5 8.5zM151 314q-13 0 -22 -8.5t-9 -21.5q0 -12 9 -21t22 -9q12 0 21 9t9 21q0 13 -9 21.5t-21 8.5zM111 195q5 -6 14.5 -15.5t39.5 -26.5t62 -20t79.5 18t94.5 73q-8 -5 -21.5 -12t-52 -22.5t-73 -22.5
t-75.5 -1.5t-68 29.5z" />
    <glyph glyph-name="uE6D4" unicode="&#xe6d4;" 
d="M403 390h109v-392h-512v392h109q21 41 60.5 65.5t86.5 24.5t86.5 -24.5t60.5 -65.5zM256 450q-73 0 -112 -60h224q-39 60 -112 60zM482 28v332h-452v-332h452zM241 179v-60h30v60h60v30h-60v60h-30v-60h-60v-30h60z" />
    <glyph glyph-name="uE6D5" unicode="&#xe6d5;" 
d="M512 121v-123h-30v-30h-452v30h-30v123q0 24 17 40.5t40 16.5h132l-38 141v101q0 25 17.5 42.5t42.5 17.5h90q24 0 42 -17.5t18 -42.5l-1 -106l-38 -136h133q23 0 40 -16.5t17 -40.5zM482 28v93q0 11 -8 19t-19 8h-172l48 172v100q0 12 -9 21t-21 9h-90q-12 0 -21 -9
t-9 -21v-99l48 -173h-172q-11 0 -19 -8t-8 -19v-93h452z" />
    <glyph glyph-name="uE6D6" unicode="&#xe6d6;" 
d="M161 304l-21 21l-101 -101l101 -101l21 21l-79 80zM372 325l101 -101l-101 -101l-21 21l79 80l-79 80zM241 -32v512h30v-512h-30z" />
    <glyph glyph-name="uE6D7" unicode="&#xe6d7;" 
d="M499 364q13 -13 13 -32q0 -17 -13 -32l-231 -231l-25 24l-66 -66h-163l379 380q13 13 32 13t32 -13zM204 175l64 -63l24 25l-63 63zM165 57l57 58l-39 39l-97 -97h79zM477 322q11 10 0 21l-42 42q-5 5 -10 5q-6 0 -11 -5l-164 -164l64 -63z" />
    <glyph glyph-name="uE6D8" unicode="&#xe6d8;" 
d="M1 450v-452h90v30h-60v392h60v30h-90zM422 450h91v-452h-91v30h61v392h-61v30zM268 240q63 -24 62 -71q0 -30 -22 -50.5t-63 -20.5q-39 0 -62 16l8 26q28 -16 56 -16q24 0 37.5 11.5t13.5 30.5q0 17 -10.5 28t-35.5 20q-64 25 -64 69q0 29 22 48t57 19q32 0 54 -12
l-9 -26q-24 12 -46 12q-23 0 -34.5 -11t-11.5 -26q0 -17 11 -27t37 -20z" />
    <glyph glyph-name="uE6D9" unicode="&#xe6d9;" 
d="M458 224l-101 101l-21 -21l79 -80l-79 -80l21 -21zM211 -32v512h30v-512h-30z" />
    <glyph glyph-name="uE6DA" unicode="&#xe6da;" 
d="M176 304l-21 21l-101 -101l101 -101l21 21l-79 80zM271 480h30v-512h-30v512z" />
    <glyph glyph-name="uE6DB" unicode="&#xe6db;" 
d="M0 471l503 -503h-503v503zM30 398v-400h400l-76 77l-20 -20l-21 21l19 20l-21 21l-20 -19l-21 21l20 20l-22 21l-19 -20l-22 22l20 19l-21 22l-20 -20l-21 21l19 20l-21 21l-20 -19l-21 21l20 20l-22 21l-19 -20l-22 22l20 19zM60 28v232l232 -232h-232zM90 188v-130h130
z" />
    <glyph glyph-name="uE6DC" unicode="&#xe6dc;" 
d="M60 480h392v-509l-60 75l-45 -57l-45 57l-45 -57l-45 57l-45 -57l-46 57l-61 -75v509zM422 57v393h-332v-395l32 39l45 -57l45 57l45 -57l45 57l45 -57l45 57zM331 360v30h-181v-30h181zM271 239v30h-121v-30h121zM361 299v30h-211v-30h211zM151 179v-30h210v30h-210z
" />
    <glyph glyph-name="uE6DD" unicode="&#xe6dd;" 
d="M241 134v-166h30v166h-30zM422 215l-33 15l-34 190l13 23l21 37h-266l21 -37l13 -23l-34 -190l-33 -15v-66h332v66zM392 195v-16h-272v16l30 14l36 206l2 10l-14 25h164l-9 -16l-5 -9l35 -201l3 -15z" />
    <glyph glyph-name="uE6DE" unicode="&#xe6de;" 
d="M163 152l-159 -158l22 -22l158 159zM512 293l-187 187l-12 -40l-8 -26l-158 -111l-33 13l-47 -47l234 -234l47 47l-13 33l111 158zM455 307l-17 -5l-11 -3l-116 -166l-10 -13l6 -15l6 -16l-12 -11l-191 191l11 12l31 -12l179 126l3 11l5 17z" />
    <glyph glyph-name="uE6DF" unicode="&#xe6df;" 
d="M286 480q19 0 32 -13t13 -32v-321l-74 -149l-76 149v321q0 19 13 32t32 13h60zM226 450q-6 0 -10.5 -4.5t-4.5 -10.5v-31h90v31q0 6 -4.5 10.5t-10.5 4.5h-60zM243 58h26l28 55h-82zM211 143h90v170h-90v-170zM211 343h90v31h-90v-31z" />
    <glyph glyph-name="uE6E0" unicode="&#xe6e0;" 
d="M256 465q100 0 170.5 -70.5t70.5 -170.5q0 -61 -29 -114.5t-80 -87.5l-10 -6l-112 112q-13 13 -32 13t-32 -13q-14 -14 -14 -32q0 -20 14 -32l82 -82l-39 2q-97 4 -163.5 73.5t-66.5 166.5q0 100 70.5 170.5t170.5 70.5zM381 55q40 29 63 74t23 95q0 87 -62 149t-149 62
t-149 -62t-62 -149q0 -73 44.5 -129.5t113.5 -74.5l-23 23q-22 22 -22 53t22 53q22 21 53.5 21t53.5 -21zM346 284q25 0 43 -17.5t18 -42.5t-18 -42.5t-43 -17.5t-42.5 17.5t-17.5 42.5t17.5 42.5t42.5 17.5zM346 194q13 0 21.5 8.5t8.5 21.5t-8.5 21.5t-21.5 8.5
q-12 0 -21 -8.5t-9 -21.5t9 -21.5t21 -8.5zM256 299q19 0 32 13.5t13 31.5q0 19 -13 32.5t-32 13.5t-32 -13.5t-13 -32.5q0 -18 13 -31.5t32 -13.5zM173 303q0 12 -8.5 21t-21.5 9t-21.5 -9t-8.5 -21q0 -13 8.5 -22t21.5 -9t21.5 9t8.5 22z" />
    <glyph glyph-name="uE6E1" unicode="&#xe6e1;" 
d="M60 299q25 0 42.5 -17.5t17.5 -42.5t-17.5 -42.5t-42.5 -17.5t-42.5 17.5t-17.5 42.5t17.5 42.5t42.5 17.5zM60 209q13 0 21.5 8.5t8.5 21.5t-8.5 21.5t-21.5 8.5q-12 0 -21 -8.5t-9 -21.5t9 -21.5t21 -8.5zM256 299q25 0 42.5 -17.5t17.5 -42.5t-17.5 -42.5t-42.5 -17.5
t-42.5 17.5t-17.5 42.5t17.5 42.5t42.5 17.5zM256 209q13 0 21.5 8.5t8.5 21.5t-8.5 21.5t-21.5 8.5t-21.5 -8.5t-8.5 -21.5t8.5 -21.5t21.5 -8.5zM452 299q25 0 42.5 -17.5t17.5 -42.5t-17.5 -42.5t-42.5 -17.5t-42.5 17.5t-17.5 42.5t17.5 42.5t42.5 17.5zM452 209
q12 0 21 8.5t9 21.5t-9 21.5t-21 8.5q-13 0 -21.5 -8.5t-8.5 -21.5t8.5 -21.5t21.5 -8.5z" />
    <glyph glyph-name="uE6E2" unicode="&#xe6e2;" 
d="M120 239q0 25 -17.5 42.5t-42.5 17.5t-42.5 -17.5t-17.5 -42.5t17.5 -42.5t42.5 -17.5t42.5 17.5t17.5 42.5zM256 299q25 0 42.5 -17.5t17.5 -42.5t-17.5 -42.5t-42.5 -17.5t-42.5 17.5t-17.5 42.5t17.5 42.5t42.5 17.5zM452 299q25 0 42.5 -17.5t17.5 -42.5t-17.5 -42.5
t-42.5 -17.5t-42.5 17.5t-17.5 42.5t17.5 42.5t42.5 17.5z" />
    <glyph glyph-name="uE6E3" unicode="&#xe6e3;" 
d="M350 269l-34 -241h-45v-60h-30v60h-45l-34 241q-34 36 -34 85q0 53 37.5 90.5t90.5 37.5t90.5 -37.5t37.5 -90.5q0 -49 -34 -85zM181 415q-22 -25 -22 -61q0 -40 28.5 -68.5t68.5 -28.5t68.5 28.5t28.5 68.5q0 36 -22 61v-55h-30v80q-12 7 -30 10v-121h-30v121
q-18 -3 -30 -10v-80h-30v55zM223 58h66l27 184q-30 -15 -60 -15t-60 15z" />
    <glyph glyph-name="uE6E4" unicode="&#xe6e4;" 
d="M331 480h151v-314q0 -91 -68.5 -144.5t-157.5 -53.5t-157.5 53.5t-68.5 144.5v314h151v-305q0 -30 22 -51t53 -21t53 21t22 51v305zM452 450h-91v-90h91v90zM151 450h-91v-90h91v90zM256 -2q32 0 64.5 9.5t63 28t49.5 52.5t19 78v163h-91v-154q0 -42 -31 -72.5t-74 -30.5
t-74 30.5t-31 72.5v154h-91v-163q0 -44 19 -78t49.5 -52.5t63 -28t64.5 -9.5z" />
    <glyph glyph-name="uE6E5" unicode="&#xe6e5;" 
d="M512 299h-512v-30h512v30zM0 179v30h512v-30h-512z" />
    <glyph glyph-name="uE6E6" unicode="&#xe6e6;" 
d="M0 239v-30h15v30h-15zM72 209v30h28v-30h-28zM157 209v30h28v-30h-28zM327 209v30h28v-30h-28zM242 209v30h28v-30h-28zM412 209v30h28v-30h-28zM497 239h15v-30h-15v30z" />
    <glyph glyph-name="uE6E7" unicode="&#xe6e7;" 
d="M0 239v-30h120v30h-120zM196 209v30h120v-30h-120zM392 239h120v-30h-120v30z" />
    <glyph glyph-name="uE6E8" unicode="&#xe6e8;" 
d="M0 480h512v-512h-512v512zM482 -2v452h-452v-452h452z" />
    <glyph glyph-name="uE6E9" unicode="&#xe6e9;" 
d="M0 480h512v-512h-512v512zM482 -2v452h-452v-452h452zM90 239v-30h30v30h-30zM90 360v-31h30v31h-30zM90 179v-30h30v30h-30zM90 299v-30h30v30h-30zM90 420v-30h30v30h-30zM90 58v-30h30v30h-30zM90 119v-31h30v31h-30zM392 420v-30h30v30h-30zM392 299v-30h30v30h-30z
M392 360v-31h30v31h-30zM392 239v-30h30v30h-30zM392 179v-30h30v30h-30zM392 119v-31h30v31h-30zM392 58v-30h30v30h-30z" />
    <glyph glyph-name="uE6EA" unicode="&#xe6ea;" 
d="M60 -2v-30h30v30h-30zM301 -32v30h30v-30h-30zM361 -32v30h31v-30h-31zM120 -32v30h31v-30h-31zM181 -32v30h30v-30h-30zM241 -32v30h30v-30h-30zM422 -32v30h30v-30h-30zM422 390v30h30v-30h-30zM422 329v31h30v-31h-30zM422 88v31h30v-31h-30zM422 269v30h30v-30h-30z
M422 209v30h30v-30h-30zM422 28v30h30v-30h-30zM422 149v30h30v-30h-30zM422 480h30v-30h-30v30zM361 450v30h31v-30h-31zM181 450v30h30v-30h-30zM241 450v30h30v-30h-30zM301 450v30h30v-30h-30zM120 450v30h31v-30h-31zM60 450v30h30v-30h-30zM60 88v31h30v-31h-30z
M60 28v30h30v-30h-30zM60 149v30h30v-30h-30zM60 390v30h30v-30h-30zM60 329v31h30v-31h-30zM60 269v30h30v-30h-30zM60 209v30h30v-30h-30z" />
    <glyph glyph-name="uE6EB" unicode="&#xe6eb;" 
d="M211 390h301v-392h-512v422h211v-30zM331 360h-120v-31h120v31zM482 28v271h-301v91h-151v-362h452zM361 329h121v31h-121v-31z" />
    <glyph glyph-name="uE6EC" unicode="&#xe6ec;" 
d="M361 420h151v-422h-512v422h361zM482 390h-121v-61h121v61zM331 390h-150v-61h150v61zM30 390v-61h121v61h-121zM482 28v271h-452v-271h452z" />
    <glyph glyph-name="uE6ED" unicode="&#xe6ed;" 
d="M181 450h331v-452h-331v181h-151v120h-30v121h181v30zM60 299v-30h121v30h-121zM60 209h121v30h-121v-30zM482 28v392h-271v-30h-181v-61h181v-301h271z" />
    <glyph glyph-name="uE6EE" unicode="&#xe6ee;" 
d="M211 420h301v-91h-331v91h-151v-90h-30v120h211v-30zM211 390v-30h120v30h-120zM361 360h121v30h-121v-30z" />
    <glyph glyph-name="uE6EF" unicode="&#xe6ef;" 
d="M0 450h512v-422h-512v422zM482 58v362h-452v-362h452zM140 168l21 21l-49 50l49 50l-21 21l-71 -71zM351 189l21 -21l71 71l-71 71l-21 -21l49 -50z" />
    <glyph glyph-name="uE6F0" unicode="&#xe6f0;" 
d="M60 58v332h392v-332h-392zM90 360v-272h332v272h-332zM482 344v-240h30v240h-30zM0 344v-240h30v240h-30z" />
    <glyph glyph-name="uE6F1" unicode="&#xe6f1;" 
d="M512 480h-151v-512h151v512zM271 -32v30h30v-30h-30zM218 -32v30h26v-30h-26zM57 -32v30h27v-30h-27zM110 -32v30h27v-30h-27zM164 -32v30h27v-30h-27zM0 -32v30h30v-30h-30zM0 209v30h30v-30h-30zM0 390v30h30v-30h-30zM0 149v30h30v-30h-30zM0 269v30h30v-30h-30zM0 88
v31h30v-31h-30zM0 28v30h30v-30h-30zM0 329v31h30v-31h-30zM0 450v30h30v-30h-30zM244 480v-30h-26v30h26zM191 480v-30h-27v30h27zM84 480v-30h-27v30h27zM137 480v-30h-27v30h27zM271 450v30h30v-30h-30zM271 28v30h30v-30h-30zM271 88v31h30v-31h-30zM271 209v30h30v-30
h-30zM271 149v30h30v-30h-30zM271 329v31h30v-31h-30zM271 269v30h30v-30h-30zM271 390v30h30v-30h-30z" />
    <glyph glyph-name="uE6F2" unicode="&#xe6f2;" 
d="M0 -2v-30h30v30h-30zM422 -32v30h30v-30h-30zM361 -32v30h31v-30h-31zM301 -32v30h30v-30h-30zM241 -32v30h30v-30h-30zM181 -32v30h30v-30h-30zM60 -32v30h30v-30h-30zM120 -32v30h31v-30h-31zM482 -32v30h30v-30h-30zM482 149v30h30v-30h-30zM482 88v31h30v-31h-30z
M482 329v31h30v-31h-30zM482 209v30h30v-30h-30zM482 269v30h30v-30h-30zM482 390v30h30v-30h-30zM482 28v30h30v-30h-30zM482 480h30v-30h-30v30zM120 450v30h31v-30h-31zM60 450v30h30v-30h-30zM361 450v30h31v-30h-31zM301 450v30h30v-30h-30zM181 450v30h30v-30h-30z
M422 450v30h30v-30h-30zM241 450v30h30v-30h-30zM0 450v30h30v-30h-30zM0 88v31h30v-31h-30zM0 28v30h30v-30h-30zM0 149v30h30v-30h-30zM0 329v31h30v-31h-30zM0 209v30h30v-30h-30zM0 390v30h30v-30h-30zM0 269v30h30v-30h-30z" />
    <glyph glyph-name="uE6F3" unicode="&#xe6f3;" 
d="M0 480v-512h151v512h-151zM211 -32v30h30v-30h-30zM428 -32v30h27v-30h-27zM375 -32v30h27v-30h-27zM268 -32v30h26v-30h-26zM321 -32v30h27v-30h-27zM482 -32v30h30v-30h-30zM482 390v30h30v-30h-30zM482 28v30h30v-30h-30zM482 269v30h30v-30h-30zM482 329v31h30v-31
h-30zM482 209v30h30v-30h-30zM482 149v30h30v-30h-30zM482 88v31h30v-31h-30zM482 480h30v-30h-30v30zM428 450v30h27v-30h-27zM375 450v30h27v-30h-27zM321 450v30h27v-30h-27zM268 450v30h26v-30h-26zM211 450v30h30v-30h-30zM211 28v30h30v-30h-30zM211 88v31h30v-31h-30
zM211 269v30h30v-30h-30zM211 149v30h30v-30h-30zM211 329v31h30v-31h-30zM211 390v30h30v-30h-30zM211 209v30h30v-30h-30z" />
    <glyph glyph-name="uE6F4" unicode="&#xe6f4;" 
d="M1 450h512v-452h-512v452zM245 224l-214 187v-374zM44 419l213 -185l213 185h-426zM257 214l-214 -186h426zM268 224l215 -188v375z" />
    <glyph glyph-name="uE6F5" unicode="&#xe6f5;" 
d="M0 269h392v-90h-392v90zM241 239h-90v-30h90v30zM30 239v-30h90v30h-90zM361 209v30h-90v-30h90z" />
    <glyph glyph-name="uE6F6" unicode="&#xe6f6;" 
d="M90 450h332v-90h-332v90zM392 390v30h-272v-30h272zM90 239v90h332v-90h-332zM120 299v-30h272v30h-272zM90 119v90h332v-90h-332zM120 179v-30h272v30h-272zM90 -2v91h332v-91h-332zM120 58v-30h272v30h-272z" />
    <glyph glyph-name="uE6F7" unicode="&#xe6f7;" 
d="M0 179v90h151v-90h-151zM30 239v-30h90v30h-90zM181 179v90h150v-90h-150zM211 239v-30h90v30h-90zM361 269h151v-90h-151v90zM482 209v30h-90v-30h90z" />
    <glyph glyph-name="uE6F8" unicode="&#xe6f8;" 
d="M0 269h512v-90h-512v90zM271 239v-30h90v30h-90zM241 209v30h-90v-30h90zM30 239v-30h90v30h-90zM482 209v30h-90v-30h90z" />
    <glyph glyph-name="uE6F9" unicode="&#xe6f9;" 
d="M60 88v-30h452v30h-452zM211 -2v30h301v-30h-301zM512 450h-512v-331h512v331zM482 420v-271h-452v271h452z" />
    <glyph glyph-name="uE6FA" unicode="&#xe6fa;" 
d="M241 360h271v-272h-271v272zM482 119v210h-211v-210h211zM35 360v-31h176v31h-176zM106 239v-30h105v30h-105zM211 269v30h-211v-30h211zM0 179v-30h211v30h-211zM35 119v-31h176v31h-176z" />
    <glyph glyph-name="uE6FB" unicode="&#xe6fb;" 
d="M452 119v30h-392v-30h392zM361 89v-30h-301v30h301zM512 450h-512v-452h512v452zM482 420v-392h-452v392h452z" />
    <glyph glyph-name="uE6FC" unicode="&#xe6fc;" 
d="M0 420h512v-362h-512v362zM30 179h452v211h-452v-211z" />
    <glyph glyph-name="uE6FD" unicode="&#xe6fd;" 
d="M361 209v30h-301v-30h301zM361 179v-30h-301v30h301zM512 450h-512v-452h512v452zM482 420v-392h-452v392h452z" />
    <glyph glyph-name="uE6FE" unicode="&#xe6fe;" 
d="M0 88v-30h452v30h-452zM0 -2v30h301v-30h-301zM512 450h-512v-331h512v331zM482 420v-271h-452v271h452z" />
    <glyph glyph-name="uE6FF" unicode="&#xe6ff;" 
d="M301 360v-31h176v31h-176zM301 239v-30h105v30h-105zM301 299v-30h211v30h-211zM301 179v-30h211v30h-211zM301 119v-31h176v31h-176zM0 88v272h271v-272h-271zM30 329v-210h211v210h-211z" />
    <glyph glyph-name="uE700" unicode="&#xe700;" 
d="M30 88v-30h452v30h-452zM120 -2v30h272v-30h-272zM512 450h-512v-331h512v331zM482 420v-271h-452v271h452z" />
    <glyph glyph-name="uE701" unicode="&#xe701;" 
d="M30 360h452v-181h-452v181zM452 209v120h-392v-120h392zM422 149h-332v-30h332v30zM60 88v-30h392v30h-392z" />
    <glyph glyph-name="uE702" unicode="&#xe702;" 
d="M452 360v30h-271v-30h271zM181 329h331v-30h-331v30zM0 420v-151h151v151h-151zM30 299v91h90v-91h-90zM452 179v-30h-271v30h271zM181 88v31h331v-31h-331zM0 209v-151h151v151h-151zM30 88v91h90v-91h-90z" />
    <glyph glyph-name="uE703" unicode="&#xe703;" 
d="M452 329v31h-271v-31h271zM181 299h331v-30h-331v30zM0 239v151h151v-151h-151zM452 149v-30h-271v30h271zM181 58v30h331v-30h-331zM0 28v151h151v-151h-151z" />
    <glyph glyph-name="uE704" unicode="&#xe704;" 
d="M422 329v61h-422v-61h422zM0 299h512v-30h-512v30zM422 179v-60h-422v60h422zM0 58v30h512v-30h-512z" />
    <glyph glyph-name="uE705" unicode="&#xe705;" 
d="M497 329v31h-75v-31h75zM467 239v-30h-45v30h45zM422 299h90v-30h-90v30zM422 149v30h90v-30h-90zM422 88v31h75v-31h-75zM0 360v-272h392v272h-392zM30 119v210h331v-210h-331z" />
    <glyph glyph-name="uE706" unicode="&#xe706;" 
d="M512 239h-512v-30h512v30z" />
    <glyph glyph-name="uE707" unicode="&#xe707;" 
d="M30 360v90h90v-90h-90zM60 420v-30h30v30h-30zM151 360v90h90v-90h-90zM181 420v-30h30v30h-30zM271 360v90h90v-90h-90zM301 420v-30h30v30h-30zM392 450h90v-90h-90v90zM452 390v30h-30v-30h30zM30 239v90h90v-90h-90zM60 299v-30h30v30h-30zM151 239v90h90v-90h-90z
M181 299v-30h30v30h-30zM271 239v90h90v-90h-90zM301 299v-30h30v30h-30zM392 239v90h90v-90h-90zM422 299v-30h30v30h-30zM30 119v90h90v-90h-90zM60 179v-30h30v30h-30zM151 119v90h90v-90h-90zM181 179v-30h30v30h-30zM271 119v90h90v-90h-90zM301 179v-30h30v30h-30z
M392 119v90h90v-90h-90zM422 179v-30h30v30h-30zM30 -2v90h90v-90h-90zM60 58v-30h30v30h-30zM151 -2v90h90v-90h-90zM181 58v-30h30v30h-30zM271 -2v90h90v-90h-90zM301 58v-30h30v30h-30zM392 -2v90h90v-90h-90zM422 58v-30h30v30h-30z" />
    <glyph glyph-name="uE708" unicode="&#xe708;" 
d="M0 329v151h151v-151h-151zM30 450v-90h90v90h-90zM181 329v151h150v-151h-150zM211 450v-90h90v90h-90zM361 480h151v-151h-151v151zM482 360v90h-90v-90h90zM0 149v150h151v-150h-151zM30 269v-90h90v90h-90zM181 149v150h150v-150h-150zM211 269v-90h90v90h-90z
M361 149v150h151v-150h-151zM392 269v-90h90v90h-90zM0 -32v151h151v-151h-151zM30 88v-90h90v90h-90zM181 -32v151h150v-151h-150zM211 88v-90h90v90h-90zM361 -32v151h151v-151h-151zM392 88v-90h90v90h-90z" />
    <glyph glyph-name="uE709" unicode="&#xe709;" 
d="M0 269v211h211v-211h-211zM30 450v-151h151v151h-151zM271 480h211v-211h-211v211zM452 299v151h-151v-151h151zM0 -2v211h211v-211h-211zM30 179v-151h151v151h-151zM271 -2v211h211v-211h-211zM301 179v-151h151v151h-151z" />
    <glyph glyph-name="uE70A" unicode="&#xe70a;" 
d="M0 420v-91h90v91h-90zM271 329v91h90v-91h-90zM0 88v91h90v-91h-90zM271 88v91h90v-91h-90zM120 390v30h121v-30h-121zM120 329v31h121v-31h-121zM392 420h120v-30h-120v30zM392 329v31h120v-31h-120zM211 299v-30h-91v30h91zM482 299v-30h-90v30h90zM120 149v30h121v-30
h-121zM120 88v31h121v-31h-121zM392 149v30h120v-30h-120zM392 88v31h120v-31h-120zM120 28v30h91v-30h-91zM392 28v30h90v-30h-90z" />
    <glyph glyph-name="uE70B" unicode="&#xe70b;" 
d="M0 390h512v-332h-512v332zM482 88v272h-452v-272h452zM422 239v30h-302v-30h302zM271 209v-60h151v60h-151z" />
    <glyph glyph-name="uE70C" unicode="&#xe70c;" 
d="M0 390h512v-332h-512v332zM482 88v272h-452v-272h452zM392 239v30h-302v-30h302zM241 149v60h-151v-60h151z" />
    <glyph glyph-name="uE70D" unicode="&#xe70d;" 
d="M422 239v30h-332v-30h332zM512 390h-512v-332h512v332zM482 360v-272h-452v272h452zM191 149v60h130v-60h-130z" />
    <glyph glyph-name="uE70E" unicode="&#xe70e;" 
d="M271 269v30h-211v-30h211zM120 209v30h151v-30h-151zM512 390h-512v-302h512v302zM482 360v-241h-452v241h452zM452 299v-60h-151v60h151z" />
    <glyph glyph-name="uE70F" unicode="&#xe70f;" 
d="M452 269v30h-211v-30h211zM241 209v30h151v-30h-151zM512 390h-512v-302h512v302zM482 360v-241h-452v241h452zM211 299v-60h-151v60h151z" />
    <glyph glyph-name="uE710" unicode="&#xe710;" 
d="M30 -32v512h90v-512h-90zM60 450v-452h30v452h-30zM151 -32v512h90v-512h-90zM181 450v-452h30v452h-30zM271 -32v512h90v-512h-90zM301 450v-452h30v452h-30zM392 480h90v-512h-90v512zM452 -2v452h-30v-452h30z" />
    <glyph glyph-name="uE711" unicode="&#xe711;" 
d="M0 -32v512h151v-512h-151zM30 450v-452h90v452h-90zM181 -32v512h150v-512h-150zM211 450v-452h90v452h-90zM361 480h151v-512h-151v512zM482 -2v452h-90v-452h90z" />
    <glyph glyph-name="uE712" unicode="&#xe712;" 
d="M0 -32v512h241v-512h-241zM30 450v-452h181v452h-181zM271 480h241v-512h-241v512zM482 -2v452h-181v-452h181z" />
    <glyph glyph-name="uE713" unicode="&#xe713;" 
d="M0 480h512v-90h-512v90zM482 420v30h-452v-30h452zM0 88v272h512v-272h-512zM30 329v-210h452v210h-452zM0 -32v90h512v-90h-512zM30 28v-30h452v30h-452z" />
    <glyph glyph-name="uE714" unicode="&#xe714;" 
d="M0 480h512v-512h-512v512zM482 450h-452v-271h452v271zM482 149h-452v-61h452v61zM30 -2h452v60h-452v-60z" />
    <glyph glyph-name="uE715" unicode="&#xe715;" 
d="M120 480h392v-271h-392v271zM482 239v211h-331v-211h331zM0 390v90h90v-90h-90zM30 450v-30h30v30h-30zM120 88v91h392v-91h-392zM151 149v-30h331v30h-331zM0 88v91h90v-91h-90zM30 149v-30h30v30h-30zM120 -32v90h392v-90h-392zM151 28v-30h331v30h-331zM0 -32v90h90
v-90h-90zM30 28v-30h30v30h-30z" />
    <glyph glyph-name="uE716" unicode="&#xe716;" 
d="M90 480h332v-196l-167 -286l-165 286v196zM255 58zM256 299q13 0 21.5 9t8.5 21q0 13 -8.5 22t-21.5 9t-21.5 -9t-8.5 -22q0 -12 8.5 -21t21.5 -9zM392 292v158h-272v-158l121 -209v188q-20 5 -32.5 21t-12.5 37q0 25 17.5 43t42.5 18t42.5 -18t17.5 -43q0 -21 -12.5 -37
t-32.5 -21v-185z" />
    <glyph glyph-name="uE717" unicode="&#xe717;" 
d="M256 480q106 0 181 -75t75 -181t-75 -181t-181 -75t-181 75t-75 181t75 181t181 75zM256 -2q94 0 160 66t66 160t-66 160t-160 66t-160 -66t-66 -160t66 -160t160 -66zM271 107v164h-59v-30h29v-134h-30v-30h90v30h-30zM216 330q0 -13 9 -21.5t21 -8.5q13 0 21.5 8.5
t8.5 21.5q0 12 -8.5 21t-21.5 9q-12 0 -21 -9t-9 -21z" />
    <glyph glyph-name="uE718" unicode="&#xe718;" 
d="M256 480q106 0 181 -75t75 -181t-75 -181t-181 -75t-181 75t-75 181t75 181t181 75zM256 -2q94 0 160 66t66 160t-66 160t-160 66t-160 -66t-66 -160t66 -160t160 -66zM291 112q0 13 -9 22t-22 9t-22 -9t-9 -22t9 -22t22 -9t22 9t9 22zM321 353q-23 29 -61 29
q-45 0 -65.5 -25t-21.5 -53h30l1 2v5t1.5 5.5t2.5 6.5t3.5 7t5.5 7t7 6t9 5t12 3t15 1q24 0 37 -18q14 -17 11 -30q-5 -21 -32 -46q-38 -34 -38 -72h30q0 24 28 50q34 30 42 61q5 29 -17 56z" />
    <glyph glyph-name="uE719" unicode="&#xe719;" 
d="M472 299q17 -2 28.5 -15t11.5 -30v-120q0 -19 -13 -32.5t-32 -13.5h-45v31h-30v150h30v30h18q-21 68 -71.5 109.5t-112.5 41.5t-112.5 -42t-71.5 -109h18v-30h30v-150h-30v-31h-32q5 -26 26 -43t48 -17h82q10 30 42 30h90q19 0 32.5 -13t13.5 -32t-13.5 -32t-32.5 -13
h-90q-31 0 -42 30h-82q-40 0 -69.5 27t-34.5 67q-28 12 -28 42v120q0 17 11.5 30t28.5 15q22 80 82 130.5t134 50.5q75 0 134.5 -50t81.5 -131zM256 28q-6 0 -10.5 -4.5t-4.5 -10.5t4.5 -10.5t10.5 -4.5h90q15 0 15 15t-15 15h-90zM60 119v150h-15q-6 0 -10.5 -4.5
t-4.5 -10.5v-120q0 -15 15 -15h15zM482 134v120q0 6 -4.5 10.5t-10.5 4.5h-15v-150h15q15 0 15 15z" />
    <glyph glyph-name="uE71A" unicode="&#xe71a;" 
d="M437 232q0 19 -13.5 32.5t-32.5 13.5q-6 0 -14 -2v4q0 19 -13 32.5t-32 13.5q-7 0 -15 -2q-1 18 -14.5 30t-30.5 12q-6 0 -16 -2v70q0 19 -13 32.5t-32 13.5t-32.5 -13.5t-13.5 -32.5v-148l-8 9q-31 31 -59 13q-16 -9 -21 -27.5t4 -33.5l99 -214q5 -9 17 -18v-15
q0 -6 4.5 -10.5t10.5 -4.5t10.5 4.5t4.5 10.5v26q0 10 -11 14q-7 2 -9 6l-99 214q-8 13 5 23q9 5 23 -9l33 -37q9 -7 17 -3q9 3 9 14v186q0 16 16 16q6 0 10.5 -4.5t4.5 -11.5v-110q0 -13 14 -15q14 0 16 13q2 14 16 14q6 0 10.5 -4.5t4.5 -11.5v-38q0 -15 14 -15
q14 -2 16 14q0 15 15 15q6 0 10.5 -4.5t4.5 -11.5v-47q0 -6 4.5 -10.5t10.5 -4.5q7 -1 11 3.5t4 10.5q0 16 14 16q6 0 11 -4.5t5 -11.5v-96q0 -15 -17 -60q-14 -42 -14 -50v-26q0 -6 4.5 -10.5t11.5 -4.5q6 0 10.5 4.5t4.5 10.5v26q0 5 11 40q19 49 19 70v96z" />
    <glyph glyph-name="uE71B" unicode="&#xe71b;" 
d="M510 254q0 19 -14 32.5t-33 13.5h-147l8 7q31 31 14 60q-10 16 -28 21t-34 -4l-214 -99q-11 -6 -17 -17h-15q-6 0 -10.5 -4.5t-4.5 -10.5t4.5 -10.5t10.5 -4.5h25q11 0 15 11q2 8 6 9l214 99q14 9 22 -5q5 -9 -8 -23l-37 -33q-7 -9 -4 -17q3 -9 14 -9h186q7 0 12 -4.5
t5 -11.5q0 -6 -5 -10.5t-12 -4.5h-109q-13 0 -15 -14t13 -16q14 -2 14 -16q0 -6 -4.5 -10.5t-11.5 -4.5h-38q-15 0 -15 -14q-1 -6 3.5 -10.5t10.5 -5.5q6 0 10.5 -4.5t4.5 -10.5t-4.5 -10.5t-11.5 -4.5h-47q-15 0 -15 -15q-1 -6 3.5 -10.5t10.5 -4.5q16 0 16 -14
q0 -7 -5 -11.5t-11 -4.5h-96q-15 0 -60 17q-39 13 -50 13h-26q-15 0 -15 -15q0 -6 4.5 -10.5t10.5 -4.5h26q9 0 39 -12q54 -18 71 -18h96q19 0 32.5 13.5t13.5 32.5q0 4 -2 14h4q19 0 32.5 13t13.5 32q0 9 -3 15q18 1 30.5 14.5t12.5 30.5q0 9 -3 16h70q20 0 33.5 13
t13.5 32z" />
    <glyph glyph-name="uE71C" unicode="&#xe71c;" 
d="M495 73q0 15 -15 15h-26q-11 0 -50 -13q-45 -17 -60 -17h-96q-16 0 -16 16q0 14 16 14q14 0 14 15q0 6 -4.5 10.5t-10.5 4.5h-47q-7 0 -11.5 4.5t-4.5 10.5q0 15 15 15q14 2 14 16t-15 14h-38q-7 0 -11.5 4.5t-4.5 10.5q0 14 14 16q13 2 13 16q-2 14 -15 14h-110
q-7 0 -11.5 4.5t-4.5 10.5q0 16 16 16h186q11 0 14 9q4 8 -3 17l-36 33q-14 13 -10 23q9 13 24 5l211 -98q6 -3 8 -10q4 -11 14 -11h26q6 0 10.5 4.5t4.5 10.5t-4.5 10.5t-10.5 4.5h-16q-6 10 -18 18l-212 98q-16 9 -34.5 4t-27.5 -21q-18 -28 14 -60l8 -7h-148
q-19 0 -32.5 -13.5t-13.5 -32.5t13.5 -32t32.5 -13h70q-2 -10 -2 -16q0 -17 12 -30.5t30 -14.5q-2 -8 -2 -15q0 -19 13.5 -32t32.5 -13h4q-2 -10 -2 -14q0 -19 13.5 -32.5t32.5 -13.5h96q18 0 70 18q32 12 40 12h26q6 0 10.5 4.5t4.5 10.5z" />
    <glyph glyph-name="uE71D" unicode="&#xe71d;" 
d="M414 140q16 9 21 27.5t-4 33.5l-99 214q-5 9 -17 18v15q0 6 -4.5 10.5t-10.5 4.5t-10.5 -4.5t-4.5 -10.5v-26q0 -10 11 -14q7 -2 9 -6l99 -214q8 -13 -5 -23q-9 -5 -23 9l-33 37q-9 7 -17 3q-9 -3 -9 -14v-186q0 -16 -16 -16q-6 0 -10.5 4.5t-4.5 11.5v110q0 13 -14 15
q-14 0 -16 -13q-2 -14 -16 -14q-6 0 -10.5 4.5t-4.5 11.5v38q0 15 -14 15t-16 -14q0 -15 -15 -15q-6 0 -10.5 4.5t-4.5 11.5v47q0 6 -4.5 10.5t-10.5 4.5q-15 0 -15 -14q0 -16 -14 -16q-6 0 -11 4.5t-5 11.5v96q0 15 17 60q14 37 14 50v26q0 6 -4.5 10.5t-11.5 4.5
q-6 0 -10.5 -4.5t-4.5 -10.5v-26q0 -5 -11 -40q-19 -49 -19 -70v-96q0 -19 13.5 -32.5t32.5 -13.5q6 0 14 2v-4q0 -19 13 -32.5t32 -13.5q7 0 15 2q1 -18 14.5 -30t30.5 -12q11 0 16 2v-70q0 -19 13 -32.5t32 -13.5t32.5 13.5t13.5 32.5v148l8 -9q31 -31 59 -13z" />
    <glyph glyph-name="uE71E" unicode="&#xe71e;" 
d="M392 179v-91h-392v392h392v-301zM30 450v-241h21l108 180l68 -117l34 37l78 -100h22v241h-331zM301 209l-42 54l-38 -41l-63 108l-72 -121h215zM30 119h331v60h-331v-60zM512 390h-90v-30h60v-332h-331v30h-31v-60h392v392z" />
    </font>
</defs>
</svg>
